Loading...
Error

Девять жизней Хлои Кинг / The Nine Lives of Chloe King / Сезон: 1 / Серии: 1-10 (10) (Джо Лазаров, Крис Грисмер) [2011 г., драма, WEB-DLRip] MVO (AXN Sci-Fi) + Original

Статистика раздачи
Размер:  4,88 GB   |    Зарегистрирован:  2 года 10 месяцев   |    Скачан:  10 раз

Полного источника не было: 8 дней

Сидов:  0  |  0 KB/s  ]   Личеров:  0  |  0 KB/s  ]

* - сиды/пиры с внешних источников

   
 
Автор Сообщение

Печаль'ka Пол:Жен

23-Янв-2014 11:07

Девять жизней Хлои Кинг / The Nine Lives of Chloe King


Год выпуска: 2011
Страна: США
Жанр: Фантастика, драма, приключения
Продолжительность: 45 мин
Перевод: Профессиональный многоголосый закадровый(Axn Sci Fi)
Субтитры: нет
Режиссёр: Венди Станцлер / Wendey Stanzler

В ролях:
Скайлер Сэмюэлс, Грэйс Фиппс, Бен Джонстоун, Алисса Диаз, Грэй Дэймон, Эми Пьетц

Описание:
Однажды шестнадцатилетняя девочка Хлоя Кинг получает сверхспособности и обнаруживает, что ее кто-то преследует. Вскоре Хлоя узнает, что она — потомок древней расы, на которую тысячелетиями охотились убийцы, и теперь она является единственной надеждой этой расы на выживание.

Качество: WEB_DLRip
Формат: AVI
Видео кодек: XviD
Аудио кодек: MP3
Видео: 720x400 (1.80:1), 23.976 fps, XviD build 64 ~1269 kbps avg, 0.184 bit/pixel
Аудио Rus: 48 kHz, MPEG Layer 3, 2 ch, ~128.00 kbps avg
Аудио Eng: 48 kHz, MPEG Layer 3, 2 ch, ~128.00 kbps avg




[color=darkgreen]General
Complete name : C:\Users\Administrator\Downloads\The Nine Lives Of Chloe King Season 1\The.Nine.Lives.of.Chloe.King.s01e01.webdlrip.*другой трекер*.avi
Format : AVI
Format/Info : Audio Video Interleave
File size : 498 MiB
Duration : 45mn 17s
Overall bit rate : 1 539 Kbps
Writing application : VirtualDubMod 1.5.10.2 (build 2540/release)
Writing library : VirtualDubMod build 2540/release

Video
ID : 0
Format : MPEG-4 Visual
Format profile : Advanced Simple@L5
Format settings, BVOP : 2
Format settings, QPel : No
Format settings, GMC : No warppoints
Format settings, Matrix : Default (MPEG)
Codec ID : XVID
Codec ID/Hint : XviD
Duration : 45mn 17s
Bit rate : 1 269 Kbps
Width : 720 pixels
Height : 400 pixels
Display aspect ratio : 16:9
Frame rate : 23.976 fps
Color space : YUV
Chroma subsampling : 4:2:0
Bit depth : 8 bits
Scan type : Progressive
Compression mode : Lossy
Bits/(Pixel*Frame) : 0.184
Stream size : 411 MiB (82%)
Writing library : XviD 64

Audio #1
ID : 1
Format : MPEG Audio
Format version : Version 1
Format profile : Layer 3
Mode : Joint stereo
Mode extension : MS Stereo
Codec ID : 55
Codec ID/Hint : MP3
Duration : 45mn 17s
Bit rate mode : Constant
Bit rate : 128 Kbps
Channel(s) : 2 channels
Sampling rate : 48.0 KHz
Compression mode : Lossy
Stream size : 41.5 MiB (8%)
Alignment : Aligned on interleaves
Interleave, duration : 42 ms (1.00 video frame)
Interleave, preload duration : 504 ms

Audio #2
ID : 2
Format : MPEG Audio
Format version : Version 1
Format profile : Layer 3
Mode : Joint stereo
Mode extension : MS Stereo
Codec ID : 55
Codec ID/Hint : MP3
Duration : 45mn 17s
Bit rate mode : Constant
Bit rate : 128 Kbps
Channel(s) : 2 channels
Sampling rate : 48.0 KHz
Compression mode : Lossy
Stream size : 41.5 MiB (8%)
Alignment : Aligned on interleaves
Interleave, duration : 42 ms (1.00 video frame)
Interleave, preload duration : 504 ms

[/color]




  1. Pilot

  2. Redemption

  3. Green Star

  4. All Apologies

  5. Girls Night Out

  6. Nothing Compares 2 U

  7. Dogs of War

  8. Heartbreaker

  9. Responsible

  10. Beautiful Day
pic pic pic pic
Для увеличения картинки щелкните мышкой по превью

Этот торрент недоступен для скачивания без регистрации, однако доступен по публичной magnet-ссылке (источники с публичных трекеров). Перед использованием ссылки прочтите, пожалуйста Пользовательское соглашение, а также как можно дольше оставайтесь на раздаче! Для того, чтобы скачать сам торрент-файл (который видит больше источников), а также для того, чтобы поблагодарить релизера, вам необходимо зарегистрироваться. Если регистрироваться лень - вы можете также попробовать скачать релиз по нашим партнерским ссылкам ниже.

[underverse.su].t35581.torrent
Трекер: Зарегистрирован   [ 23.01.2014 11:07 ]  

Статус: проверено (by Печаль'ka at 23.01.2014 11:07)
Поблагодарили: пока никто не поблагодарил...
Тип торрента: публичный - доступные источники с открытых трекеров: 
Размер: 4,88 GB (занимает 1,11 DVDR, для записи нужно 2 болванки DVDR/RW)
 
 
Похожие темы
Форум Тема Автор Торрент Отв. Посл. сооб.
T Зарубежное кино [DVDRip, Low-Res HDRip, и т.д.] Девять жизней / Nine Lives (Барри Зонненфельд / Barry Sonnenfeld) [2016 г., фэнтези, комедия, семейный, BDRip-AVC] Dub (iTunes) 90ytr90
142 | 8

0 | 287

9

13.11.2016 09:19

T Зарубежное кино [DVDRip, Low-Res HDRip, и т.д.] Девять жизней / Nine Lives (Барри Зонненфельд / Barry Sonnenfeld) [2016 г., фэнтези, комедия, семейный, BDRip-AVC] Dub (iTunes) + Original (Eng) + Sub (Eng) 90ytr90
399 | 25

0 | 286

3

13.11.2016 09:15

T Зарубежное кино [DVDRip, Low-Res HDRip, и т.д.] Девять жизней / Nine Lives (Барри Зонненфельд / Barry Sonnenfeld) [2016 г., фэнтези, комедия, семейный, BDRip-AVC] Dub (iTunes) + Original (Eng) + Sub (Eng) 90ytr90
121 | 14

0 | 312

6

11.11.2016 18:15

T Зарубежное кино [DVDRip, Low-Res HDRip, и т.д.] Девять жизней / Nine Lives (Барри Зонненфельд / Barry Sonnenfeld) [2016 г., фэнтези, комедия, семейный, HDRip] Dub (iTunes) 90ytr90
88 | 4

0 | 290

1

11.11.2016 18:05

T Зарубежное кино [DVDRip, Low-Res HDRip, и т.д.] Девять жизней / Nine Lives (Барри Зонненфельд) [2016 г., фэнтези, комедия, семейный, HDRip] Dub (iTunes) makkol
733 | 9

0 | 151

16

09.11.2016 21:12

% Зарубежное кино [DVDRip, Low-Res HDRip, и т.д.] Девять жизней / Nine Lives (Барри Зонненфельд / Barry Sonnenfeld) [2016 г., фэнтези, комедия, семейный, HDRip] Dub (чистый звук) 90ytr90
1779 | 23

0 | 394

46

27.10.2016 18:41

T Зарубежное кино [DVDRip, Low-Res HDRip, и т.д.] Девять жизней / Nine Lives (Барри Зонненфельд) [2016 г., фэнтези, комедия, семейный, HDRip] Dub (звук с TS) makkol
16 | 1

0 | 162

7

21.10.2016 21:56

T Зарубежное кино [DVDRip, Low-Res HDRip, и т.д.] Девять жизней / Nine Lives (Барри Зонненфельд) [2016 г., фэнтези, комедия, семейный, WEBRip] Dub (звук с TS) makkol
548 | 8

0 | 336

14

20.10.2016 22:02

T Зарубежное кино [HDDVDRip / BDRip / WEB-DL / HDTV 1080/720р] Девять жизней / Nine Lives (Барри Зонненфельд) [2016 г., фэнтези, комедия, семейный, BDRip 1080p] Dub (iTunes) + Original makkol
83 | 7

0 | 162

8

09.11.2016 21:27

T Зарубежное кино [HDDVDRip / BDRip / WEB-DL / HDTV 1080/720р] Девять жизней / Nine Lives (Барри Зонненфельд) [2016 г., фэнтези, комедия, семейный, BDRip 720p] Dub (iTunes) + Original makkol
700 | 114

0 | 136

11

09.11.2016 21:19


Яндекс.Метрика powered by Sphinx


В Н И М А Н И Е
Сайт не распространяет и не хранит электронные версии произведений, а лишь бесплатно и без коммерческой выгоды (не требуя взамен платы,
SMS и т.д.) предоставляет доступ к создаваемому пользователями каталогу ссылок на торрент-файлы, которые содержат только списки хеш-сумм.
Убедительная просьба с жалобами обращаться напрямую к пользователю, разместившему торрент файл.

Вверх