Loading...
Error

Стилет / Jacknife (Дэвид Хью Джонс / David Hugh Jones) [1989 г., драма, HDTVRip] DVO

Статистика раздачи
Размер:  1,44 GB   |    Зарегистрирован:  2 года 10 месяцев   |    Скачан:  1 раз

Полного источника не было: 2 года 8 месяцев

Сидов:  0  |  0 KB/s  ]   Личеров:  0  |  0 KB/s  ]

* - сиды/пиры с внешних источников

   
 
Автор Сообщение

garry Пол:Муж

22-Янв-2014 06:59

Стилет / Jacknife


Год выпуска: 1989
Жанр: драма
Страна: США
Режиссер: Дэвид Хью Джонс / David Hugh Jones
В ролях: Роберт Де Ниро, Кэти Бэйкер, Эд Харрис, Слоун Шелтон, Айвар Броггер
Сюжет фильма:
Бородатый Де Ниро играет ожесточившегося ветерана вьетнамской войны по прозвищу Стилет. Он навещает своего сослуживца (Хэррис), чтобы вместе отправиться на рыбалку, как они когда-то мечтали во Вьетнаме. Между Стилетом и сестрой Харриса (Бэйкер) завязывается роман, который вызывает у Харриса взрыв ревности и раздражения

  • Мировая премьера: 10 марта 1989


Качество видео: HDTVRip

Продолжительность: 01:38:17
Формат: AVI
Видео: XviD, 720x384, 1899 kbps
Аудио: русский, двухголосый закадровый [профессиональный], AC3 2.0, 192 kbps

Код:

Стилет - Jacknife [Rip by Edich2].avi
 Format : AVI
 Format/Info : Audio Video Interleave
 File size : 1.44 GiB
 Duration : 1h 38mn
 Overall bit rate : 2 102 Kbps
 Movie name : Стилет - Jacknife [Rip by Edich2]
 Director : Rip by Edich2
 Writing application : VirtualDubMod 1.5.10.3 | www.virtualdub-fr.org || (build 2550/release)
 Comment : *другой трекер*

Video
 ID : 0
 Format : MPEG-4 Visual
 Format profile : Advanced Simple@L5
 Format settings, BVOP : 2
 Format settings, QPel : No
 Format settings, GMC : No warppoints
 Format settings, Matrix : Custom
 Codec ID : XVID
 Codec ID/Hint : XviD
 Duration : 1h 38mn
 Bit rate : 1 900 Kbps
 Width : 720 pixels
 Height : 384 pixels
 Display aspect ratio : 1.85:1
 Frame rate : 25.000 fps
 Color space : YUV
 Chroma subsampling : 4:2:0
 Bit depth : 8 bits
 Scan type : Progressive
 Compression mode : Lossy
 Bits/(Pixel*Frame) : 0.275
 Stream size : 1.30 GiB (90%)
 Writing library : XviD 1.2.1 (UTC 2008-12-04)

Audio
 ID : 1
 Format : AC-3
 Format/Info : Audio Coding 3
 Mode extension : CM (complete main)
 Format settings, Endianness : Big
 Codec ID : 2000
 Duration : 1h 38mn
 Bit rate mode : Constant
 Bit rate : 192 Kbps
 Channel count : 2 channels
 Channel positions : Front: L R
 Sampling rate : 48.0 KHz
 Bit depth : 16 bits
 Compression mode : Lossy
 Stream size : 135 MiB (9%)
 Alignment : Split accross interleaves
 Interleave, duration : 40 ms (1.00 video frame)
 Interleave, preload duration : 500 ms
Релиз: edich2

picpicpic
Для увеличения картинки щелкните мышкой по превью

Этот торрент недоступен для скачивания без регистрации, однако доступен по публичной magnet-ссылке (источники с публичных трекеров). Перед использованием ссылки прочтите, пожалуйста Пользовательское соглашение, а также как можно дольше оставайтесь на раздаче! Для того, чтобы скачать сам торрент-файл (который видит больше источников), а также для того, чтобы поблагодарить релизера, вам необходимо зарегистрироваться. Если регистрироваться лень - вы можете также попробовать скачать релиз по нашим партнерским ссылкам ниже.

[underverse.su].t35526.torrent
Трекер: Зарегистрирован   [ 22.01.2014 06:59 ]  

Статус: проверено (by garry at 26.01.2014 05:01)
Поблагодарили: пока никто не поблагодарил...
Тип торрента: публичный - доступные источники с открытых трекеров: 
Размер: 1,44 GB (занимает 0,33 DVDR, для записи нужно 1 болванка DVDR/RW)
 
 

Яндекс.Метрика powered by Sphinx


В Н И М А Н И Е
Сайт не распространяет и не хранит электронные версии произведений, а лишь бесплатно и без коммерческой выгоды (не требуя взамен платы,
SMS и т.д.) предоставляет доступ к создаваемому пользователями каталогу ссылок на торрент-файлы, которые содержат только списки хеш-сумм.
Убедительная просьба с жалобами обращаться напрямую к пользователю, разместившему торрент файл.

Вверх