Loading...
Error

Бразилия / Brazil (Терри Гиллиам / Terry Gilliam) [1985 г., фантастика, антиутопия, драма, BDRip-AVC] MVO + Original

Статистика раздачи
Размер:  2,18 GB   |    Зарегистрирован:  2 года 10 месяцев   |    Скачан:  6 раз

Полного источника не было: 7 часов

Сидов:  0  |  0 KB/s  ]   Личеров:  0  |  0 KB/s  ]

* - сиды/пиры с внешних источников

   
 
Автор Сообщение

garry Пол:Муж

22-Янв-2014 06:40

Бразилия / Brazil


Год выпуска: 1985
Жанр: фантастика, антиутопия, драма
Страна: Великобритания , США
Режиссер: Терри Гиллиам / Terry Gilliam
В ролях: Джонатан Прайс, Роберт Де Ниро, Кэтрин Хэлмонд, Ян Хольм, Боб Хоскинс, Майкл Палин, Ян Ричардсон, Питер Вон, Ким Грист, Джим Бродбент, Барбара Хикс, Чарльз МакКоуэн, Деррик О’Коннор, Кэтрин Погсон, Брайан Прингл, Шила Рид, Джон Флэнеган, Рэй Купер, Брайан Миллер, Саймон Нэш, Пруденс Оливер, Дерек Дэдмен, Найджел Плэйнер, Теренс Бэйлер, Горден Кэйи
Сюжет фильма:
Сэм Лоури - крошечный винтик в огромной заржавевшей бюрократической машине тоталитарного государства будущего. Сэм старается не лезть в неприятности, но однажды, заметив ошибку в документе, которая привела к аресту невинного человека, он решает исправить ее.
Благое намерение скромного клерка неожиданно для него вызывает целую лавину странных совпадений и загадочных событий, и вскоре выясняется, что крошечная опечатка способна пошатнуть могучего колосса на глиняных ногах.

  • Мировая премьера: 20 февраля 1985

/
Качество видео: BDRip-AVC

Продолжительность: 02:23:20
Формат: MKV
Видео: x264, 962x520, 1732 kbps
Аудио #1: русский, многоголосый закадровый [профессиональный], AC3 2.0, 224 kbps
Аудио #2: английский, оригинал, AC3 2.0, 224 kbps
Субтитры: тип: вшитые отключаемые, русский, формат: SRT

Код:

Формат : Matroska
 Версия формата : Version 2
 Размер файла : 2,18 Гбайт
 Продолжительность : 2 ч. 23 м.
 Общий поток : 2181 Кбит/сек
 Дата кодирования : UTC 2012-02-13 19:44:16
 Программа кодирования : mkvmerge v4.9.1 ('Ich will') сборка от Jul 11 2011 23:53:15
 Библиотека кодирования : libebml v1.2.1 + libmatroska v1.1.1

Видео
 Идентификатор : 1
 Формат : AVC
 Формат/Информация : Advanced Video Codec
 Профиль формата : High@L4.1
 Параметр CABAC формата : Да
 Параметр ReFrames формата : 11 кадров
 Идентификатор кодека : V_MPEG4/ISO/AVC
 Продолжительность : 2 ч. 23 м.
 Битрейт : 1732 Кбит/сек
 Ширина : 962 пикселя
 Высота : 520 пикселей
 Соотношение сторон : 1,850
 Частота кадров : 23,976 кадра/сек
 Цветовое пространство : YUV
 Субдискретизация насыщенности : 4:2:0
 Битовая глубина : 8 бит
 Тип развёртки : Прогрессивная
 Бит/(Пиксели*Кадры) : 0.144
 Размер потока : 1,69 Гбайт (77%)
 Библиотека кодирования : x264 core 120 r2164 da19765
 Настройки программы : cabac=1 / ref=11 / deblock=1:-3:-3 / analyse=0x3:0x113 / me=umh / subme=9 / psy=1 / psy_rd=1.15:0.15 / mixed_ref=1 / me_range=32 / chroma_me=1 / trellis=2 / 8x8dct=1 / cqm=0 / deadzone=21,11 / fast_pskip=0 / chroma_qp_offset=-3 / threads=6 / sliced_threads=0 / nr=0 / decimate=1 / interlaced=0 / bluray_compat=0 / constrained_intra=0 / bframes=10 / b_pyramid=2 / b_adapt=2 / b_bias=0 / direct=1 / weightb=1 / open_gop=0 / weightp=2 / keyint=230 / keyint_min=22 / scenecut=40 / intra_refresh=0 / rc=2pass / mbtree=0 / bitrate=1732 / ratetol=1.0 / qcomp=0.60 / qpmin=0 / qpmax=69 / qpstep=4 / cplxblur=20.0 / qblur=0.5 / ip_ratio=1.40 / pb_ratio=1.30 / aq=1:1.00

Аудио #1
 Идентификатор : 2
 Формат : AC-3
 Формат/Информация : Audio Coding 3
 Профиль формата : Dolby Digital
 Расширение режима : CM (complete main)
 Идентификатор кодека : A_AC3
 Продолжительность : 2 ч. 23 м.
 Вид битрейта : Постоянный
 Битрейт : 224 Кбит/сек
 Каналы : 2 канала
 Расположение каналов : Front: L R
 Частота : 48,0 КГц
 Битовая глубина : 16 бит
 Метод сжатия : С потерями
 Размер потока : 230 Мбайт (10%)
 Язык : Russian

Аудио #2
 Идентификатор : 3
 Формат : AC-3
 Формат/Информация : Audio Coding 3
 Расширение режима : CM (complete main)
 Идентификатор кодека : A_AC3
 Продолжительность : 2 ч. 23 м.
 Вид битрейта : Постоянный
 Битрейт : 224 Кбит/сек
 Каналы : 2 канала
 Расположение каналов : Front: L R
 Частота : 48,0 КГц
 Битовая глубина : 16 бит
 Метод сжатия : С потерями
 Размер потока : 230 Мбайт (10%)
 Язык : English

Текст
 Идентификатор : 4
 Формат : UTF-8
 Идентификатор кодека : S_TEXT/UTF8
 Идентификатор кодека/Информация : UTF-8 Plain Text
 Язык : Russian
picpicpic
Для увеличения картинки щелкните мышкой по превью

Этот торрент недоступен для скачивания без регистрации, однако доступен по публичной magnet-ссылке (источники с публичных трекеров). Перед использованием ссылки прочтите, пожалуйста Пользовательское соглашение, а также как можно дольше оставайтесь на раздаче! Для того, чтобы скачать сам торрент-файл (который видит больше источников), а также для того, чтобы поблагодарить релизера, вам необходимо зарегистрироваться. Если регистрироваться лень - вы можете также попробовать скачать релиз по нашим партнерским ссылкам ниже.

[underverse.su].t35523.torrent
Трекер: Зарегистрирован   [ 22.01.2014 06:40 ]  

Статус: проверено (by garry at 22.01.2014 06:41)
Поблагодарили: пока никто не поблагодарил...
Тип торрента: публичный - доступные источники с открытых трекеров: 
Размер: 2,18 GB (занимает 1/2 DVDR, для записи нужно 1 болванка DVDR/RW)
 
 
Похожие темы
Форум Тема Автор Торрент Отв. Посл. сооб.
Зарубежное кино [DVDRip, Low-Res HDRip, и т.д.] Бразилия / Brazil (Терри Гиллиам / Terry Gilliam) [1985 г., фантастика, фэнтези, драма, BDRip] [Director's Cut] MVO 90ytr90
9 | 0

0 | 556

5

20.01.2014 15:48


Яндекс.Метрика powered by Sphinx


В Н И М А Н И Е
Сайт не распространяет и не хранит электронные версии произведений, а лишь бесплатно и без коммерческой выгоды (не требуя взамен платы,
SMS и т.д.) предоставляет доступ к создаваемому пользователями каталогу ссылок на торрент-файлы, которые содержат только списки хеш-сумм.
Убедительная просьба с жалобами обращаться напрямую к пользователю, разместившему торрент файл.

Вверх