Loading...
Error

Однажды в Америке / Once Upon a Time in America (Серджио Леоне / Sergio Leone) [1984 г., драма, криминал, BDRip] [Extended cut] 2xAVO + VO + Original

Статистика раздачи
Размер:  4,94 GB   |    Зарегистрирован:  2 года 10 месяцев   |    Скачан:  14 раз

Полного источника не было: 29 дней

Сидов:  0  |  0 KB/s  ]   Личеров:  0  |  0 KB/s  ]

* - сиды/пиры с внешних источников

   
 
Автор Сообщение

garry Пол:Муж

21-Янв-2014 19:52

Однажды в Америке / Once Upon a Time in America [Extended cut]


Год выпуска: 1984
Жанр: драма, криминал
Страна: США , Италия
Режиссер: Серджио Леоне / Sergio Leone
В ролях: Роберт Де Ниро, Джеймс Вудс, Элизабет МакГоверн, Джо Пеши, Берт Янг, Тьюзди Уэлд, Трит Уильямс, Дэнни Айелло, Ричард Брайт, Джеймс Хейден, Уильям Форсайт, Дарлэнн Флюгел, Ларри Рэпп, Скотт Тайлер, Расти Джейкобс, Брайан Блум, Дженнифер Коннелли
Сюжет фильма:
В бурные двадцатые годы, когда Америка веселилась под звуки джаза и каждый бродяга мечтал стать миллионером, в трущобах Нью-Йорка встретились несколько отчаянных парней. Убирая с дороги конкурентов, безжалостно карая предателей и нагло проворачивая хитроумные аферы, они стали королями преступного мира золотой эры «сухого закона». Они поклялись отдать жизнь друг за друга, зная, что самое главное для них — это дружба, долг и справедливость — не утопить в реках крови и бездонном океане денег. Спустя много лет судьба жестоко обошлась с легендарными гангстерами, заставив их исполнить свою клятву. Это случилось однажды в Америке…

  • Мировая премьера: 17 февраля 1984

/
Качество видео: BDRip [ITA Blu-ray]

Продолжительность: 04:11:00
Формат: AVI
Видео: XviD, 720x400, 1272 kbps
Аудио #1: русский, одноголосый закадровый [авторский, Ю.Сербин (новый)], AC3 5.1, 384 kbps
Аудио #2: русский, одноголосый закадровый [авторский, Ю.Сербин (видеосервисовский)], AC3 5.1, 384 kbps (отдельно)
Аудио #3: русский, одноголосый закадровый [любительский, М.Яроцкий / kyberpunk], AC3 5.1, 384 kbps (отдельно)
Аудио #4: английский, оригинал, AC3 5.1, 384 kbps (отдельно)
Субтитры #1: тип: внешние, русский, формат: SRT
Субтитры #2: тип: внешние, английский, формат: SRT

Код:

Format                           : AVI
 Format/Info                      : Audio Video Interleave
 Format profile                   : OpenDML
 File size                        : 2.92 GiB
 Duration                         : 4h 11mn
 Overall bit rate                 : 1 663 Kbps
 Movie name                       : Однажды в Америке / Once Upon a Time in America (1984) [Extended cut]
 Director                         : MECHANICAL ENGINEER (Blu-Ray ITA)
 Writing application              : VirtualDubMod 1.5.10.3 | www.virtualdub-fr.org || (build 2550/release)
 Copyright                        : HQ-ViDEO
 Comment                          : 19.01.2013

Video
 ID                               : 0
 Format                           : MPEG-4 Visual
 Format profile                   : Advanced Simple@L5
 Format settings, BVOP            : Yes
 Format settings, QPel            : No
 Format settings, GMC             : No warppoints
 Format settings, Matrix          : Custom
 Codec ID                         : XVID
 Codec ID/Hint                    : XviD
 Duration                         : 4h 11mn
 Bit rate                         : 1 269 Kbps
 Width                            : 720 pixels
 Height                           : 400 pixels
 Display aspect ratio             : 16:9
 Frame rate                       : 24.000 fps
 Color space                      : YUV
 Chroma subsampling               : 4:2:0
 Bit depth                        : 8 bits
 Scan type                        : Progressive
 Bits/(Pixel*Frame)               : 0.184
 Stream size                      : 2.22 GiB (76%)
 Writing library                  : XviD 65

Audio
 ID                               : 1
 Format                           : AC-3
 Format/Info                      : Audio Coding 3
 Mode extension                   : CM (complete main)
 Codec ID                         : 2000
 Duration                         : 4h 11mn
 Bit rate mode                    : Constant
 Bit rate                         : 384 Kbps
 Channel(s)                       : 6 channels
 Channel positions                : Front: L C R, Side: L R, LFE
 Sampling rate                    : 48.0 KHz
 Bit depth                        : 16 bits
 Stream size                      : 689 MiB (23%)
 Alignment                        : Split accross interleaves
 Interleave, duration             : 42 ms (1.00 video frame)
 Interleave, preload duration     : 500 ms
Семпл: http://multi-up.com/818815

Релиз: MECHANICAL ENGINEER

picpicpic
Для увеличения картинки щелкните мышкой по превью

Этот торрент недоступен для скачивания без регистрации, однако доступен по публичной magnet-ссылке (источники с публичных трекеров). Перед использованием ссылки прочтите, пожалуйста Пользовательское соглашение, а также как можно дольше оставайтесь на раздаче! Для того, чтобы скачать сам торрент-файл (который видит больше источников), а также для того, чтобы поблагодарить релизера, вам необходимо зарегистрироваться. Если регистрироваться лень - вы можете также попробовать скачать релиз по нашим партнерским ссылкам ниже.

[underverse.su].t35510.torrent
Трекер: Зарегистрирован   [ 21.01.2014 19:52 ]  

Статус: проверено (by garry at 21.01.2014 19:52)
Поблагодарили: пока никто не поблагодарил...
Тип торрента: публичный - доступные источники с открытых трекеров: 
Размер: 4,94 GB (занимает 1,13 DVDR, для записи нужно 2 болванки DVDR/RW)
 
 
Похожие темы
Форум Тема Автор Торрент Отв. Посл. сооб.
Зарубежное кино [DVDRip, Low-Res HDRip, и т.д.] Однажды в Анатолии / Bir zamanlar Anadolu`da (Нури Бильге Джейлан) [2011 г., драма, криминал, HDRip] 90ytr90
2 | 0

0 | 1485

4

05.04.2012 10:37

Зарубежное кино [DVDRip, Low-Res HDRip, и т.д.] Однажды в Марселе / MR 73 (Оливье Маршаль / Olivier Marchal) [2008 г., триллер, драма, криминал, BDRip] MVO + Original + AVO (А. Гаврилов) + Subs 90ytr90
0 | 0

0 | 1749

8

17.11.2013 12:40

Зарубежное кино [DVDRip, Low-Res HDRip, и т.д.] Однажды в Голливуде / What Just Happened (Барри Левинсон / Barry Levinson) [2008 г., драма, комедия, BDRip] Dub garry
15 | 0

0 | 1347

10

03.02.2014 17:58

Зарубежное кино [DVDRip, Low-Res HDRip, и т.д.] Однажды в Шанхае / Once Upon a Time in Shanghai (Чинг-По Вонг / Ching-Po Wong) [2014 г., криминал, боевые искуства, WEB-DLRip] DVO (Ворон и Sandairina) + Original (Chi) + Sub (Rus) + hardsub 90ytr90
1 | 2

0 | 2958

45

13.05.2014 18:44

Зарубежное кино [DVDRip, Low-Res HDRip, и т.д.] Однажды в Шанхае / Once Upon a Time in Shanghai (Чхин Пхо Вон / Ching-Po Wong) [2014 г., криминал, боевые искуства, HDRip] DVO Паукан
5 | 0

0 | 1016

7

11.07.2014 10:45

Зарубежное кино [DVDRip, Low-Res HDRip, и т.д.] Однажды в Риме / When in Rome (Марк Стивен Джонсон) [2009 г., Мелодрама, Комедия, BDRip-AVC] Dub (RUS, Невафильм, BD EUR) + Original (ENG) + Subs (RUS, ENG) Ведьмочка
6 | 0

0 | 548

8

23.08.2014 21:11

Зарубежное кино [DVDRip, Low-Res HDRip, и т.д.] Однажды в Нью-Йорке / Song one (Кейт Баркер / Kate Barker-Froyland) [2014 г., драма, музыкальный, WEB-DLRip] VO (PashaUp) 90ytr90
2 | 0

0 | 443

5

26.01.2015 19:59

Зарубежное кино [DVDRip, Low-Res HDRip, и т.д.] Однажды в Марселе / MR 73 (Оливье Маршаль / Olivier Marchal) [2008 г., триллер, драма, криминал, HDRip] MVO 90ytr90
13 | 0

0 | 510

14

01.03.2015 18:45

Классика зарубежного кино Однажды в Америке / Once Upon a Time in America (Серджио Леоне / Sergio Leone) [1984 г., драма, криминал, HDRip] DVO + VO 90ytr90
38 | 1

0 | 2289

24

15.12.2013 13:59

Наше кино [DVDRip, Low-Res HDRip, и т.д.] Однажды в багажнике (Серикбол Утепбергенов) [2010 г., комедия, DVDRip] GanibalKing
1 | 1

2 | 1110

4

14.12.2012 19:43


Яндекс.Метрика powered by Sphinx


В Н И М А Н И Е
Сайт не распространяет и не хранит электронные версии произведений, а лишь бесплатно и без коммерческой выгоды (не требуя взамен платы,
SMS и т.д.) предоставляет доступ к создаваемому пользователями каталогу ссылок на торрент-файлы, которые содержат только списки хеш-сумм.
Убедительная просьба с жалобами обращаться напрямую к пользователю, разместившему торрент файл.

Вверх