Loading...
Error

Тайны исповеди / True Confessions (Улу Гросбард / Ulu Grosbard) [1981 г., драма, криминал, DVDRip] DVO

Статистика раздачи
Размер:  1,46 GB   |    Зарегистрирован:  2 года 10 месяцев   |    Скачан:  2 раза

Полного источника не было: 2 года 8 месяцев

Сидов:  0  |  0 KB/s  ]   Личеров:  0  |  0 KB/s  ]

* - сиды/пиры с внешних источников

   
 
Автор Сообщение

garry Пол:Муж

21-Янв-2014 19:24

Тайны исповеди / True Confessions


Год выпуска: 1981
Жанр: драма, криминал
Страна: США
Режиссер: Улу Гросбард / Ulu Grosbard
В ролях: Роберт Де Ниро, Роберт Дювалл, Чарльз Дёрнинг, Кеннет МакМиллан, Эд Флэндерс, Сирил Кьюcак, Бёрджесс Мередит, Роуз Грегорио, Дэн Хедайя, Гвен Ван Дам
Сюжет фильма:
Два великих актера — Роберт Де Ниро и Роберт Дювалл играют роли двух братьев, ищущих таинственного убийцу, чья жестокость не укладывается в рамки обычного понимания — тело жертвы разрезано пополам. Расследуя это зверское убийство юной проститутки, офицер полиции Том приезжает в город, где живет его брат — священник монсеньер Десмонд Спелласи. В деле оказываются замешанными самые уважаемые люди города, жертвующие огромные деньги на благотворительность и церковь. Так или иначе, но и священник, и полицейский тоже втягиваются в эту грязную игру, где запах денег отравляет души всех смертных.

  • Мировая премьера: 24 сентября 1981

/
Качество видео: DVDRip

Продолжительность: 01:43:24
Формат: AVI
Видео: XviD, 704x384, 1824 kbps
Аудио: русский, двухголосый закадровый [профессиональный], AC3 2.0, 192 kbps

Код:

General
 Complete name : D:\Мои раздачи\True Confessions.avi
 Format : AVI
 Format/Info : Audio Video Interleave
 File size : 1.46 GiB
 Duration : 1h 43mn
 Overall bit rate : 2 026 Kbps
 Writing application : VirtualDubMod 1.5.10.3 | www.virtualdub-fr.org || (build 2550/release)
 Writing library : VirtualDubMod build 2550/release

Video
 ID : 0
 Format : MPEG-4 Visual
 Format profile : Advanced Simple@L5
 Format settings, BVOP : Yes
 Format settings, QPel : No
 Format settings, GMC : No warppoints
 Format settings, Matrix : Custom
 Codec ID : XVID
 Codec ID/Hint : XviD
 Duration : 1h 43mn
 Bit rate : 1 825 Kbps
 Width : 704 pixels
 Height : 384 pixels
 Display aspect ratio : 16:9
 Frame rate : 25.000 fps
 Color space : YUV
 Chroma subsampling : 4:2:0
 Bit depth : 8 bits
 Scan type : Progressive
 Compression mode : Lossy
 Bits/(Pixel*Frame) : 0.270
 Stream size : 1.32 GiB (90%)
 Writing library : XviD 1.2.1 (UTC 2008-12-04)

Audio
 ID : 1
 Format : AC-3
 Format/Info : Audio Coding 3
 Mode extension : CM (complete main)
 Codec ID : 2000
 Duration : 1h 43mn
 Bit rate mode : Constant
 Bit rate : 192 Kbps
 Channel(s) : 2 channels
 Channel positions : Front: L R
 Sampling rate : 48.0 KHz
 Bit depth : 16 bits
 Compression mode : Lossy
 Stream size : 142 MiB (9%)
 Alignment : Split accross interleaves
 Interleave, duration : 40 ms (1.00 video frame)
 Interleave, preload duration : 500 ms
picpicpic
Для увеличения картинки щелкните мышкой по превью

Этот торрент недоступен для скачивания без регистрации, однако доступен по публичной magnet-ссылке (источники с публичных трекеров). Перед использованием ссылки прочтите, пожалуйста Пользовательское соглашение, а также как можно дольше оставайтесь на раздаче! Для того, чтобы скачать сам торрент-файл (который видит больше источников), а также для того, чтобы поблагодарить релизера, вам необходимо зарегистрироваться. Если регистрироваться лень - вы можете также попробовать скачать релиз по нашим партнерским ссылкам ниже.

[underverse.su].t35506.torrent
Трекер: Зарегистрирован   [ 21.01.2014 19:24 ]  

Статус: проверено (by garry at 21.01.2014 19:24)
Поблагодарили: 1 человек
Тип торрента: публичный - доступные источники с открытых трекеров: 
Размер: 1,46 GB (занимает 0,33 DVDR, для записи нужно 1 болванка DVDR/RW)
 
 
Похожие темы
Форум Тема Автор Торрент Отв. Посл. сооб.
Зарубежное кино [HDDVDRip / BDRip / WEB-DL / HDTV 1080/720р] Тайны исповеди / True Confessions (Улу Гросбард / Ulu Grosbard) [1981 г., драма, криминал, HDTVRip 720p] MVO + DVO + Original garry
4 | 0

0 | 403

2

21.01.2014 19:36

edru Пол:Муж

22-Янв-2014 15:43

gari

сиды/пиры с внешних источников отсутствуют уже более 20 часов

сделай что-нибудь :)

garry Пол:Муж

22-Янв-2014 21:26

edru
у меня качается %)

Яндекс.Метрика powered by Sphinx


В Н И М А Н И Е
Сайт не распространяет и не хранит электронные версии произведений, а лишь бесплатно и без коммерческой выгоды (не требуя взамен платы,
SMS и т.д.) предоставляет доступ к создаваемому пользователями каталогу ссылок на торрент-файлы, которые содержат только списки хеш-сумм.
Убедительная просьба с жалобами обращаться напрямую к пользователю, разместившему торрент файл.

Вверх