Loading...
Error

Две зимы и три лета (1-26 серия из 26) (Теймураз Эсадзе) [2014 г., Драма, экранизация, SatRip]

Статистика раздачи
Размер:  13,66 GB   |    Зарегистрирован:  2 года 10 месяцев   |    Скачан:  3 раза
Сидов:  1  |  259 KB/s  ]   Личеров:  0  |  0 KB/s  ]

* - сиды/пиры с внешних источников

   
 
Автор Сообщение

nemos Пол:Муж

20-Янв-2014 14:45




Год выпуска: 2014
Жанр: Драма, экранизация
Страна: Россия
Режиссер: Теймураз Эсадзе
В ролях: Сергей Маковецкий, Александр Балуев, Наталия Вдовина, Антон Хабаров, Глеб Пускепалис, Полина Кутепова, Ирина Латушко, Кирилл Гребенщиков, Ирина Гордина, Тимофей Трибунцев, Сергей Романович, Елена Николаева, Валерий Гришко, Юрий Ицков

Качество видео: SatRip

Продолжительность: 00:46:21 серия
Формат: AVI
Видео: DivX, 720х400, 1600 kbps
Аудио: русский, MP3 2.0, 128 kbps

Эпохальная сага "Две зимы и три лета" – охватывающая промежуток с 1942-го по 1972-й история нескольких поколений жителей небольшой северной деревни Пекашино на фоне истории большой страны.

Код:

E:\Фильмы (роздача)\Dve.zimy.tri.leta\Dve.zimy.tri.leta.26.avi
   General
      Complete name : E:\Фильмы (роздача)\Dve.zimy.tri.leta\Dve.zimy.tri.leta.26.avi
      Format : AVI
      Format/Info : Audio Video Interleave
      File size : 577 MiB
      Duration : 46mn 21s
      Overall bit rate : 1 741 Kbps
      Writing application : transcode-1.1.5
   Video #0
      ID : 0
      Format : MPEG-4 Visual
      Format settings, BVOP : Yes
      Format settings, QPel : No
      Format settings, GMC : No warppoints
      Format settings, Matrix : Default (H.263)
      Codec ID : DX50
      Codec ID/Hint : DivX 5
      Duration : 46mn 21s
      Bit rate : 1 600 Kbps
      Width : 720 pixels
      Height : 400 pixels
      Display aspect ratio : 16:9
      Frame rate : 25.000 fps
      Color space : YUV
      Chroma subsampling : 4:2:0
      Bit depth : 8 bits
      Scan type : Progressive
      Compression mode : Lossy
      Bits/(Pixel*Frame) : 0.222
      Stream size : 530 MiB (92%)
      Writing library : Intel(R) MPEG-4 encoder based on Intel(R) IPP 6.1 build 137.20[6.1.137.763]
   Audio #1
      ID : 1
      Format : MPEG Audio
      Format version : Version 1
      Format profile : Layer 3
      Mode : Joint stereo
      Mode extension : MS Stereo
      Codec ID : 55
      Codec ID/Hint : MP3
      Duration : 46mn 21s
      Bit rate mode : Constant
      Bit rate : 128 Kbps
      Channel(s) : 2 channels
      Sampling rate : 48.0 KHz
      Compression mode : Lossy
      Stream size : 42.4 MiB (7%)
      Alignment : Aligned on interleaves
      Interleave, duration : 24 ms (0.60 video frame)
      Interleave, preload duration : 48 ms
      Writing library : LAME3.98.2
Семпл: http://multi-up.com/942285

picpicpicpicpicpicpicpic
Для увеличения картинки щелкните мышкой по превью

Этот торрент недоступен для скачивания без регистрации, однако доступен по публичной magnet-ссылке (источники с публичных трекеров). Перед использованием ссылки прочтите, пожалуйста Пользовательское соглашение, а также как можно дольше оставайтесь на раздаче! Для того, чтобы скачать сам торрент-файл (который видит больше источников), а также для того, чтобы поблагодарить релизера, вам необходимо зарегистрироваться. Если регистрироваться лень - вы можете также попробовать скачать релиз по нашим партнерским ссылкам ниже.

[underverse.su].t35901.torrent
Трекер: Зарегистрирован   [ 01.02.2014 09:34 ]  

Статус: проверено (by 90ytr90 at 01.02.2014 11:41)
Поблагодарили: 3 человека
Тип торрента: публичный - доступные источники с открытых трекеров: 
Размер: 13,66 GB (занимает 3,12 DVDR, для записи нужно 4 болванки DVDR/RW)
 
 


Последний раз редактировалось: nemos (01.02.2014 09:34), всего редактировалось 15 раз(а)

nemos Пол:Муж

20-Янв-2014 15:09

На кинопоиске пока отсутствует! Появится, сделаю ссылку.

nemos Пол:Муж

21-Янв-2014 19:37

Торрент обновлён. Добавлены серии: 20-21

nemos Пол:Муж

29-Янв-2014 16:26

С кинопоиска обновил http://www.kinopoisk.ru/film/820505/

nemos Пол:Муж

30-Янв-2014 13:55

Торрент обновлён. Добавлены серии: 24-26

Яндекс.Метрика powered by Sphinx


В Н И М А Н И Е
Сайт не распространяет и не хранит электронные версии произведений, а лишь бесплатно и без коммерческой выгоды (не требуя взамен платы,
SMS и т.д.) предоставляет доступ к создаваемому пользователями каталогу ссылок на торрент-файлы, которые содержат только списки хеш-сумм.
Убедительная просьба с жалобами обращаться напрямую к пользователю, разместившему торрент файл.

Вверх