Loading...
Error

Женщины на грани (Смерти нет) (1-12 серий из 12) (Марат Ким) [2013 г., детектив, криминал, SatRip]

Статистика раздачи
Размер:  6,38 GB   |    Зарегистрирован:  2 года 10 месяцев   |    Скачан:  5 раз

Полного источника не было: 2 года

Сидов:  0  |  0 KB/s  ]   Личеров:  0  |  0 KB/s  ]

* - сиды/пиры с внешних источников

   
 
Автор Сообщение

nemos Пол:Муж

19-Янв-2014 07:44


Год выпуска: 2013
Жанр: детектив, криминал
Страна: Россия
Режиссер: Марат Ким
В ролях: Александр Бухаров Анастасия Заворотнюк Алла Будницкая Галина Польских Елена Корикова Елена Захарова Елена Яковлева Елена Полякова Анфиса Чехова Татьяна Навка ...

Качество видео: SatRip

Продолжительность: 00:43:54 серия
Формат: AVI
Видео: DivX, 720х400, 1600 kbps
Аудио: русский, MP3 2.0, 128 kbps

Остросюжетный детективный телесериал представляет собой адаптацию культового аргентинского телесериала «Женщины-убийцы». Каждая серия — история одной отчаявшейся женщины, которая под давлением обстоятельств была вынуждена совершить убийство. Причины, толкнувшие на преступление, у каждой героини свои: несчастливая любовь, разбитые мечты, ревность, унижение, измена, насилие и издевательства со стороны близких им мужчин — отцов, мужей или любовников.

Код:

E:\Фильмы (роздача)\Smerti.net.01\Smerti.net.04.avi
   General
      Complete name : E:\Фильмы (роздача)\Smerti.net.01\Smerti.net.04.avi
      Format : AVI
      Format/Info : Audio Video Interleave
      File size : 546 MiB
      Duration : 43mn 54s
      Overall bit rate : 1 738 Kbps
      Writing library : VirtualDub-MPEG2 build 24600/release
   Video #0
      ID : 0
      Format : MPEG-4 Visual
      Format settings, BVOP : Yes
      Format settings, QPel : No
      Format settings, GMC : No warppoints
      Format settings, Matrix : Default (H.263)
      Codec ID : DX50
      Codec ID/Hint : DivX 5
      Duration : 43mn 54s
      Bit rate : 1 600 Kbps
      Width : 720 pixels
      Height : 400 pixels
      Display aspect ratio : 16:9
      Frame rate : 25.000 fps
      Color space : YUV
      Chroma subsampling : 4:2:0
      Bit depth : 8 bits
      Scan type : Progressive
      Compression mode : Lossy
      Bits/(Pixel*Frame) : 0.222
      Stream size : 503 MiB (92%)
      Writing library : Intel(R) MPEG-4 encoder based on Intel(R) IPP 6.1 build 137.20[6.1.137.763]
   Audio #1
      ID : 1
      Format : MPEG Audio
      Format version : Version 1
      Format profile : Layer 3
      Mode : Joint stereo
      Mode extension : MS Stereo
      Codec ID : 55
      Codec ID/Hint : MP3
      Duration : 43mn 54s
      Bit rate mode : Constant
      Bit rate : 128 Kbps
      Channel(s) : 2 channels
      Sampling rate : 48.0 KHz
      Compression mode : Lossy
      Stream size : 40.2 MiB (7%)
      Alignment : Split accross interleaves
      Interleave, duration : 40 ms (1.00 video frame)
      Interleave, preload duration : 500 ms
      Writing library : LAME3.98.2
Семпл: http://multi-up.com/941777

picpicpicpicpicpicpicpicpicpicpic
Для увеличения картинки щелкните мышкой по превью

Этот торрент недоступен для скачивания без регистрации, однако доступен по публичной magnet-ссылке (источники с публичных трекеров). Перед использованием ссылки прочтите, пожалуйста Пользовательское соглашение, а также как можно дольше оставайтесь на раздаче! Для того, чтобы скачать сам торрент-файл (который видит больше источников), а также для того, чтобы поблагодарить релизера, вам необходимо зарегистрироваться. Если регистрироваться лень - вы можете также попробовать скачать релиз по нашим партнерским ссылкам ниже.

[underverse.su].t35404.torrent
Трекер: Зарегистрирован   [ 19.01.2014 07:44 ]  

Статус: проверено (by nemos at 16.06.2014 13:21)
Поблагодарили: пока никто не поблагодарил...
Тип торрента: публичный - доступные источники с открытых трекеров: 
Размер: 6,38 GB (занимает 1,46 DVDR, для записи нужно 2 болванки DVDR/RW)
 
 

Яндекс.Метрика powered by Sphinx


В Н И М А Н И Е
Сайт не распространяет и не хранит электронные версии произведений, а лишь бесплатно и без коммерческой выгоды (не требуя взамен платы,
SMS и т.д.) предоставляет доступ к создаваемому пользователями каталогу ссылок на торрент-файлы, которые содержат только списки хеш-сумм.
Убедительная просьба с жалобами обращаться напрямую к пользователю, разместившему торрент файл.

Вверх