Loading...
Error

Азы убийства / Murder 101 (Билл Кондон) [1991 г., триллер, детектив, DVDRip]

Статистика раздачи
Размер:  1,37 GB   |    Зарегистрирован:  2 года 10 месяцев   |    Скачан:  9 раз

Полного источника не было: 2 дня 3 часа

Сидов:  0  |  0 KB/s  ]   Личеров:  0  |  0 KB/s  ]

* - сиды/пиры с внешних источников

   
 
Автор Сообщение

tolstymihh Пол:Муж

18-Янв-2014 21:44

Азы убийства / Murder 101


Год выпуска: 1991
Жанр: триллер, детектив
Страна: США
Режиссер: Билл Кондон
В ролях: Пирс Броснан, Дей Янг, Антони Короне, Рафаэль Сбардж, Ким Томсон, Джек Тибо, Дж. Кеннет Кемпбелл, Тодд Мэрилл, Йорго Константин, Явон Эванс, Уолтер Кленхард, Терри Марквелл, Кэти И. Мазур, Джуди Прескотт, Дженет Ротблатт, Сюзанн Стоун, Боб Суини, Марк Л. Тэйлор
Сюжет фильма:
Чарльз Латтимор, известный писатель, автор скандальной книги о различных способах убийства, приезжает в загородный колледж, чтобы дать несколько лекций по основам творчества романиста, обучает своих студентов навыкам написания детективных историй, задавая им сюжеты.. После лекции, кто-то, воспользовавшись идеей профессора, совершает преступление, а подозрение падают на его учителя...

  • Мировая премьера: 20 марта 1991

Качество видео: DVDRip

Продолжительность: 01:32:12
Формат: avi
Видео: XviD, 640x480, 1794 kbps
Аудио #1: английский, оригинал, MP3 2.0, 128 kbps
Аудио #2: русский, дублированный [лицензия], MP3 2.0, 192 kbps
Перевод: Профессиональный (полное дублирование) лицензия

Код:

General
Complete name                    : C:\Documents and Settings\Миша\Мои документы\Downloads\Murder 101.1991.XviD.DVDRip.Feniks.avi
Format                           : AVI
Format/Info                      : Audio Video Interleave
File size                        : 1.37 GiB
Duration                         : 1h 32mn
Overall bit rate                 : 2 129 Kbps
Writing application              : VirtualDubMod 1.5.10.2 (build 2542/release)
Writing library                  : VirtualDubMod build 2542/release

Video
ID                               : 0
Format                           : MPEG-4 Visual
Format profile                   : Streaming Video@L1
Format settings, BVOP            : Yes
Format settings, QPel            : No
Format settings, GMC             : No warppoints
Format settings, Matrix          : Default (MPEG)
Muxing mode                      : Packed bitstream
Codec ID                         : XVID
Codec ID/Hint                    : XviD
Duration                         : 1h 32mn
Bit rate                         : 1 795 Kbps
Width                            : 640 pixels
Height                           : 480 pixels
Display aspect ratio             : 4/3
Frame rate                       : 23.976 fps
Resolution                       : 24 bits
Colorimetry                      : 4:2:0
Scan type                        : Progressive
Bits/(Pixel*Frame)               : 0.244
Stream size                      : 1.16 GiB (84%)
Writing library                  : XviD 1.1.2 (UTC 2006-11-01)

Audio #1
ID                               : 1
Format                           : MPEG Audio
Format version                   : Version 1
Format profile                   : Layer 3
Codec ID                         : 55
Codec ID/Hint                    : MP3
Duration                         : 1h 32mn
Bit rate mode                    : Constant
Bit rate                         : 128 Kbps
Channel(s)                       : 2 channels
Sampling rate                    : 48.0 KHz
Resolution                       : 16 bits
Stream size                      : 84.4 MiB (6%)
Alignment                        : Aligned on interleaves
Interleave, duration             : 42 ms (1.00 video frame)
Interleave, preload duration     : 504 ms
Writing library                  : LAME3.90.3

Audio #2
ID                               : 2
Format                           : MPEG Audio
Format version                   : Version 1
Format profile                   : Layer 3
Codec ID                         : 55
Codec ID/Hint                    : MP3
Duration                         : 1h 32mn
Bit rate mode                    : Constant
Bit rate                         : 192 Kbps
Channel(s)                       : 2 channels
Sampling rate                    : 48.0 KHz
Resolution                       : 16 bits
Stream size                      : 127 MiB (9%)
Alignment                        : Aligned on interleaves
Interleave, duration             : 42 ms (1.00 video frame)
Interleave, preload duration     : 504 ms

picpicpicpicpicpic
Для увеличения картинки щелкните мышкой по превью

Этот торрент недоступен для скачивания без регистрации, однако доступен по публичной magnet-ссылке (источники с публичных трекеров). Перед использованием ссылки прочтите, пожалуйста Пользовательское соглашение, а также как можно дольше оставайтесь на раздаче! Для того, чтобы скачать сам торрент-файл (который видит больше источников), а также для того, чтобы поблагодарить релизера, вам необходимо зарегистрироваться. Если регистрироваться лень - вы можете также попробовать скачать релиз по нашим партнерским ссылкам ниже.

[underverse.su].t35402.torrent
Трекер: Зарегистрирован   [ 18.01.2014 21:44 ]  

Статус: проверено (by матроскин at 19.01.2014 05:09)
Поблагодарили: 2 человека
Тип торрента: публичный - доступные источники с открытых трекеров: 
Размер: 1,37 GB (занимает 0,31 DVDR, для записи нужно 1 болванка DVDR/RW)
 
 
Похожие темы
Форум Тема Автор Торрент Отв. Посл. сооб.
Зарубежное кино [DVDRip, Low-Res HDRip, и т.д.] Азы убийства / Murder101 (Майкл Филлип Эдвардс, Шелдон Робинс) [2013 г., триллер, WEBRip] MVO 90ytr90
0 | 0

0 | 867

31

09.04.2013 15:52

21-Янв-2014 19:41

Топик был перенесен из форума Классика зарубежного кино в форум Зарубежное кино [DVDRip, Low-Res HDRip, и т.д.]


gari
 

Яндекс.Метрика powered by Sphinx


В Н И М А Н И Е
Сайт не распространяет и не хранит электронные версии произведений, а лишь бесплатно и без коммерческой выгоды (не требуя взамен платы,
SMS и т.д.) предоставляет доступ к создаваемому пользователями каталогу ссылок на торрент-файлы, которые содержат только списки хеш-сумм.
Убедительная просьба с жалобами обращаться напрямую к пользователю, разместившему торрент файл.

Вверх