Loading...
Error

Ржавчина (1-24 серия из 24) (Андрей Балашов) [2013 г., Боевик, криминал, детектив, SatRip]

Статистика раздачи
Размер:  12,19 GB   |    Зарегистрирован:  2 года 9 месяцев   |    Скачан:  9 раз

Полного источника не было: 8 месяцев

Сидов:  0  |  0 KB/s  ]   Личеров:  0  |  0 KB/s  ]

* - сиды/пиры с внешних источников

   
 
Автор Сообщение

nemos Пол:Муж

18-Янв-2014 16:40


Год выпуска: 2013
Жанр: Боевик, криминал, детектив
Страна: Россия
Режиссер: Андрей Балашов
В ролях: Юрий Ицков, Константин Соловьев, Роман Грибков, Сергей Мурзин, Олег Харитонов, Олег Морозов, Михаил Разумовский, Наталья Высочанская

Качество видео: SatRip

Продолжительность: 00:43:44 серия
Формат: AVI
Видео: DivX, 720x400, 1 601 kbps
Аудио: русский, MP3 2.0, 128 kbps

Она, словно ржавчина, способна медленно и неуклонно разъедать и разрушать… Проникнув в разные сферы жизни, коррупция уже стала печальным символом современности. Невидимая на первый взгляд, она может оказаться чрезвычайно опасной! Сотрудники Антикоррупционного комитета – Тимофей, Николай и Вика – ведут отчаянную борьбу с коррупцией в ее самых неприглядных проявлениях по всей стране. Разоблачая взяточников всех мастей и их покровителей, порой рискуя своими жизнями, они шаг за шагом приближаются к главной цели – могущественному олигарху Осинскому...

Код:

E:\Фильмы (роздача)\Rzhavchina\Rzhavchina.24.avi
   General
      Complete name : E:\Фильмы (роздача)\Rzhavchina\Rzhavchina.24.avi
      Format : AVI
      Format/Info : Audio Video Interleave
      File size : 546 MiB
      Duration : 43mn 44s
      Overall bit rate : 1 746 Kbps
   Video #0
      ID : 0
      Format : MPEG-4 Visual
      Format settings, BVOP : Yes
      Format settings, QPel : No
      Format settings, GMC : No warppoints
      Format settings, Matrix : Default (H.263)
      Codec ID : DX50
      Codec ID/Hint : DivX 5
      Duration : 43mn 44s
      Bit rate : 1 601 Kbps
      Width : 720 pixels
      Height : 400 pixels
      Display aspect ratio : 16:9
      Frame rate : 25.000 fps
      Color space : YUV
      Chroma subsampling : 4:2:0
      Bit depth : 8 bits
      Scan type : Progressive
      Compression mode : Lossy
      Bits/(Pixel*Frame) : 0.222
      Stream size : 501 MiB (92%)
      Writing library : Intel(R) MPEG-4 encoder based on Intel(R) IPP 6.1 build 137.20[6.1.137.763]
   Audio #1
      ID : 1
      Format : MPEG Audio
      Format version : Version 1
      Format profile : Layer 3
      Mode : Joint stereo
      Codec ID : 55
      Codec ID/Hint : MP3
      Duration : 43mn 44s
      Bit rate mode : Constant
      Bit rate : 128 Kbps
      Channel(s) : 2 channels
      Sampling rate : 48.0 KHz
      Compression mode : Lossy
      Stream size : 40.1 MiB (7%)
      Alignment : Aligned on interleaves
      Interleave, duration : 24 ms (0.60 video frame)
      Writing library : LAME3.98.2
Семпл: http://multi-up.com/941612

picpicpicpicpicpicpicpicpicpicpicpicpicpicpicpicpic
Для увеличения картинки щелкните мышкой по превью

Этот торрент недоступен для скачивания без регистрации, однако доступен по публичной magnet-ссылке (источники с публичных трекеров). Перед использованием ссылки прочтите, пожалуйста Пользовательское соглашение, а также как можно дольше оставайтесь на раздаче! Для того, чтобы скачать сам торрент-файл (который видит больше источников), а также для того, чтобы поблагодарить релизера, вам необходимо зарегистрироваться. Если регистрироваться лень - вы можете также попробовать скачать релиз по нашим партнерским ссылкам ниже.

[underverse.su].t36403.torrent
Трекер: Зарегистрирован   [ 16.02.2014 16:23 ]  

Статус: проверено (by garry at 16.02.2014 16:52)
Поблагодарили: 7 человек
Тип торрента: публичный - доступные источники с открытых трекеров: 
Размер: 12,19 GB (занимает 2,78 DVDR, для записи нужно 3 болванки DVDR/RW)
 
 


Последний раз редактировалось: nemos (06.11.2014 09:17), всего редактировалось 26 раз(а)

nemos Пол:Муж

18-Янв-2014 16:53

Примечание: на " Кинопоиске" данные ошибочные ! (2012г. ? [2014г.]) Информация подлежит обновлению.

90ytr90 

18-Янв-2014 17:10

nemos писал(а):

Примечание: на " Кинопоиске" данные ошибочные ! (2012г. ? [2014г.]) Информация подлежит обновлению.
В оконечных титрах, обычно, указано.

Но, однозначно, не 2014

90ytr90 

18-Янв-2014 17:27

Ставим 2013, а там поглядим ...

nemos Пол:Муж

19-Янв-2014 16:48

Торрент обновлён. Добавлены серии: 23-24

Яндекс.Метрика powered by Sphinx


В Н И М А Н И Е
Сайт не распространяет и не хранит электронные версии произведений, а лишь бесплатно и без коммерческой выгоды (не требуя взамен платы,
SMS и т.д.) предоставляет доступ к создаваемому пользователями каталогу ссылок на торрент-файлы, которые содержат только списки хеш-сумм.
Убедительная просьба с жалобами обращаться напрямую к пользователю, разместившему торрент файл.

Вверх