Loading...
Error

Чёрный список / The Blacklist (2 сезона) (Майкл В. Уоткинс, Джо Карнахан, Джейс Александр) [2013 г., боевик, триллер, криминал, детектив, WEB-DLRip] MVO

Статистика раздачи
Размер:  4,97 GB   |    Зарегистрирован:  2 года 10 месяцев   |    Скачан:  12 раз

Полного источника не было: 7 месяцев

Сидов:  0  |  0 KB/s  ]   Личеров:  0  |  0 KB/s  ]

* - сиды/пиры с внешних источников

   
 
Автор Сообщение

UseR Пол:Муж

17-Янв-2014 16:28

Чёрный список / The Blacklist (Джо Карнахан / Joe Carnahan) [Серии: 10 из 13]


Год выпуска: 2013 (2 сезона)
Жанр: боевик, триллер, криминал, детектив
Страна: США
Режиссер: Майкл В. Уоткинс, Джо Карнахан, Джейс Александр
В ролях: Джеймс Спэйдер, Меган Бун, Диего Клаттенхофф, Гарри Дж. Ленникс, Райан Игголд, Ильфенеш Хадера, Парминдер К. Награ, Хишам Тафик, Дебора С. Крэйг, Амир Арисон
Сюжет фильма:
Произошло невероятное, человек за которым ФБР гонялась десяток лет, сам пришел и сдался. Он умен и хитер, но почему так получилось? Он устал бегать и скрываться или у него есть план? Далее преступник ведет свою игру, обещая фбрэровцам золотые горы, он сдаст им всех опасных преступников, так званый "Черный список", которые разгуливают на воле и многое другое. В замен он требует, чтобы переговоры с ним вела агент Лиз Кин, она молода и неопытна, такого поворота событий, никто не ожидал. Выхода нет, правительство соглашается, далее хитрец, втягивает всех в авантюру, последствия которой, в первую очередь, ощутят на себе главные герои.


  • Мировая премьера: 23 сентября 2013
  • Российская премьера: 12 октября 2013


Качество видео: WEB-DLRip

Продолжительность: 00:45:08 / серия
Формат: avi
Видео: XviD, 720x400, 1431 kbps
Аудио #1: русский, многоголосый закадровый [профессиональный], MP3 2.0, 128 kbps
Аудио #2: русский, многоголосый закадровый [профессиональный], MP3 2.0, 128 kbps

Код:

General
Complete name                    : D:\Video\Чёрный список\The.Blacklist.s01e01.avi
Format                           : AVI
Format/Info                      : Audio Video Interleave
File size                        : 549 MiB
Duration                         : 45mn 8s
Overall bit rate                 : 1 701 Kbps
Writing application              : VirtualDubMod 1.5.10.2 (build 2540/release)
Writing library                  : VirtualDubMod build 2540/release

Video
ID                               : 0
Format                           : MPEG-4 Visual
Format profile                   : Streaming Video@L1
Format settings, BVOP            : Yes
Format settings, QPel            : No
Format settings, GMC             : No warppoints
Format settings, Matrix          : Default (MPEG)
Codec ID                         : XVID
Codec ID/Hint                    : XviD
Duration                         : 45mn 8s
Bit rate                         : 1 431 Kbps
Width                            : 720 pixels
Height                           : 400 pixels
Display aspect ratio             : 16/9
Frame rate                       : 23.976 fps
Resolution                       : 24 bits
Colorimetry                      : 4:2:0
Scan type                        : Progressive
Bits/(Pixel*Frame)               : 0.207
Stream size                      : 462 MiB (84%)
Writing library                  : XviD 64

Audio #1
ID                               : 1
Format                           : MPEG Audio
Format version                   : Version 1
Format profile                   : Layer 3
Codec ID                         : 55
Codec ID/Hint                    : MP3
Duration                         : 45mn 8s
Bit rate mode                    : Constant
Bit rate                         : 128 Kbps
Channel(s)                       : 2 channels
Sampling rate                    : 48.0 KHz
Resolution                       : 16 bits
Stream size                      : 41.3 MiB (8%)
Alignment                        : Aligned on interleaves
Interleave, duration             : 42 ms (1.00 video frame)
Interleave, preload duration     : 504 ms

Audio #2
ID                               : 2
Format                           : MPEG Audio
Format version                   : Version 1
Format profile                   : Layer 3
Codec ID                         : 55
Codec ID/Hint                    : MP3
Duration                         : 45mn 8s
Bit rate mode                    : Constant
Bit rate                         : 128 Kbps
Channel(s)                       : 2 channels
Sampling rate                    : 48.0 KHz
Resolution                       : 16 bits
Stream size                      : 41.3 MiB (8%)
Alignment                        : Aligned on interleaves
Interleave, duration             : 42 ms (1.00 video frame)
Interleave, preload duration     : 504 ms

picpicpicpicpicpicpicpicpicpicpicpic
Для увеличения картинки щелкните мышкой по превью

Этот торрент недоступен для скачивания без регистрации, однако доступен по публичной magnet-ссылке (источники с публичных трекеров). Перед использованием ссылки прочтите, пожалуйста Пользовательское соглашение, а также как можно дольше оставайтесь на раздаче! Для того, чтобы скачать сам торрент-файл (который видит больше источников), а также для того, чтобы поблагодарить релизера, вам необходимо зарегистрироваться. Если регистрироваться лень - вы можете также попробовать скачать релиз по нашим партнерским ссылкам ниже.

[underverse.su].t35331.torrent
Трекер: Зарегистрирован   [ 17.01.2014 16:28 ]  

Статус: T временная (by 90ytr90 at 20.01.2014 14:18)
Поблагодарили: пока никто не поблагодарил...
Тип торрента: публичный - доступные источники с открытых трекеров: 
Размер: 4,97 GB (занимает 1,14 DVDR, для записи нужно 2 болванки DVDR/RW)
 
 
Похожие темы
Форум Тема Автор Торрент Отв. Посл. сооб.
Зарубежные сериалы Черный список / The Blacklist / Сезоны 1-2 (44 серии из 44) (Майкл В. Уоткинс, Стивен А. Эделсон, Карен Гавиола) [2013-2014 г., триллер, драма, мелодрама, криминал, детектив, HDRip, WEB-DLRip] Dub... older
5 | 2

0 | 467

6

09.09.2015 05:51

T Зарубежные сериалы [BD / Remux / BDRip / WEB-DL / HDTV 1080/720р] Черный список / The Blacklist / Сезон 3 (1-7 серий из 22) (Джо Карнахан) [2014-2015 г., драма, криминал, WEB-DL 720p] DVO (To4ka) + Original ultarasbarcelona
4 | 0

0 | 1108

3

24.11.2015 11:10


Яндекс.Метрика powered by Sphinx


В Н И М А Н И Е
Сайт не распространяет и не хранит электронные версии произведений, а лишь бесплатно и без коммерческой выгоды (не требуя взамен платы,
SMS и т.д.) предоставляет доступ к создаваемому пользователями каталогу ссылок на торрент-файлы, которые содержат только списки хеш-сумм.
Убедительная просьба с жалобами обращаться напрямую к пользователю, разместившему торрент файл.

Вверх