Loading...
Error

Штормовое предупреждение / Storm Warning (Джэми Блэнкс / Jamie Blanks) [2007, Австралия, ужасы, триллер, BDRemux 1080p] Dub (R5) + VO (Xixidok) + Original (Eng) + Sub (Rus / Ukr / Eng)

Статистика раздачи
Размер:  19,77 GB   |    Зарегистрирован:  2 года 10 месяцев   |    Скачан:  8 раз

Полного источника не было: 2 года 6 месяцев

Сидов:  0  |  0 KB/s  ]   Личеров:  0  |  0 KB/s  ]

* - сиды/пиры с внешних источников

   
 
Автор Сообщение

uzi2009 Пол:Муж

16-Янв-2014 12:28

Штормовое предупреждение / Storm Warning
«Остаться в живых - значит умереть...»
Страна: Австралия
Студии: Resolution Independent, Storm Warning Productions
Жанр: ужасы, триллер
Год выпуска: 2007
Продолжительность: 01:26:13
Перевод:
  • Профессиональный (дублированный) (R5)

  • Одноголосый закадровый (Xixidok)
Cубтитры: русские (Forced, Full), украинские (Full), английские (Full, SDH)
Оригинальная аудиодорожка: английский
Внимание: Дорожка #1 содержит в различных местах в конце - места без перевода (14 фраз, переведены субтитрами (включены по умолчанию)).
Режиссер: Джэми Блэнкс / Jamie Blanks
В ролях: Надя Фарес / Nadia Farиs, Роберт Тейлор / Robert Taylor, Дэвид Лайонс / David Lyons, Мэттью Уилкинсон / Mathew Wilkinson, Джон Брамптон / John Brumpton, Джонатан Олдхэм / Johnathan Oldham, Пюсс / Puss
Описание: Роб и Пиа, семейная пара, отправляются на лодочную прогулку и попадают в страшную бурю. Их лодка разбита, они выброшены в совершенно безлюдном и жутком месте, окруженном непроходимым лесом… В попытке спрятаться от бушующего дождя и ветра молодые люди находят, как им кажется, заброшенную ферму, в которой обнаруживают большое количество марихуаны. Теперь они понимают, что если вдруг объявится хозяин, им ничего хорошего не светит, но они и не предполагали, что за ужас их ждет.


- зрителям, достигшим 18 лет

Тип релиза: BDRemux 1080p
Исходник: Storm Warning 2007 1080p ESP Blu-ray VC-1 DTS-HD MA 5.1-CtrlHD
Источник: HDBits
Контейнер: MKV
Видео: VC-1 Video / 29886 kbps kbps / 1080p / 23,976 fps / 16:9 / Advanced Profile 3
Аудио #1: Russian: 48 kHz, DTS, 3/2 (L,C,R,l,r) + LFE ch, ~768.00 kbps avg - [Dub, R5]
Аудио #2: Russian: 48 kHz, AC3, 2/0 (L,R), ~192.00 kbps avg - [VO, Xixidok]
Аудио #3: English: DTS-HD High-Res Audio 5.1 / (48 kHz / 2046 kbps / 16-bit) (DTS Core: 5.1 / 48 kHz / 1509 kbps / 16-bit) - [Original]
Формат субтитров: softsub (SRT)
Чаптеры: Сохранены оригинальные чаптеры с Blu-Ray

Цитата:

  • Релиз доступен благодаря проекту GORESEWAGE!

  • Версия с ДВД по визуальному содержанию сцен, их звуковому сопровождению и диалогам, отличается от взятого Blu-Ray'я (пример).
  • Для синхронизации использовались вставки из оригинала.
  • На места без перевода были созданы форсированные сабы, по переводу Хихидока. Полные взяты из сети.
  • Украинские и русские сабы были допилены дописаны и подогнаны под этот трансфер. В конце правился почти каждый тайминг вручную.
  • Семпл с самого конца, включена одна вставка.

pic pic pic pic pic pic pic pic pic pic pic pic



Код:

Format                                   : Matroska
Format version                           : Version 2
File size                                : 19.8 GiB
Duration                                 : 1h 26mn
Overall bit rate                         : 32.8 Mbps
Movie name                               : Arifis for GORESEWAGE
Encoded date                             : UTC 2014-01-13 12:19:36
Writing application                      : mkvmerge v5.2.1 ('A Far Off Place') built on Jan  2 2012 23:21:10
Writing library                          : libebml v1.2.3 + libmatroska v1.3.0

Video
ID                                       : 1
Format                                   : VC-1
Format profile                           : Advanced@L3
Codec ID                                 : V_MS/VFW/FOURCC / WVC1
Codec ID/Hint                            : Microsoft
Duration                                 : 1h 26mn
Bit rate                                 : 29.2 Mbps
Width                                    : 1 920 pixels
Height                                   : 1 080 pixels
Display aspect ratio                     : 16:9
Frame rate mode                          : Constant
Frame rate                               : 23.976 fps
Chroma subsampling                       : 4:2:0
Bit depth                                : 8 bits
Scan type                                : Progressive
Compression mode                         : Lossy
Bits/(Pixel*Frame)                       : 0.586
Stream size                              : 17.6 GiB (89%)
Title                                    : Storm Warning (Arifis for GORESEWAGE)
Default                                  : Yes
Forced                                   : No

Audio #1
ID                                       : 2
Format                                   : DTS
Format/Info                              : Digital Theater Systems
Mode                                     : 16
Format settings, Endianness              : Big
Codec ID                                 : A_DTS
Duration                                 : 1h 26mn
Bit rate mode                            : Constant
Bit rate                                 : 768 Kbps
Channel(s)                               : 6 channels
Channel positions                        : Front: L C R, Side: L R, LFE
Sampling rate                            : 48.0 KHz
Bit depth                                : 24 bits
Compression mode                         : Lossy
Stream size                              : 474 MiB (2%)
Title                                    : DTS 5.1 @ 768 kbps - Dub, R5
Language                                 : Russian
Default                                  : Yes
Forced                                   : No

Audio #2
ID                                       : 3
Format                                   : AC-3
Format/Info                              : Audio Coding 3
Mode extension                           : CM (complete main)
Format settings, Endianness              : Big
Codec ID                                 : A_AC3
Duration                                 : 1h 26mn
Bit rate mode                            : Constant
Bit rate                                 : 192 Kbps
Channel(s)                               : 2 channels
Channel positions                        : Front: L R
Sampling rate                            : 48.0 KHz
Bit depth                                : 16 bits
Compression mode                         : Lossy
Stream size                              : 118 MiB (1%)
Title                                    : АС3 2.0 @ 192 kbps - VO, Xixidok
Language                                 : Russian
Default                                  : No
Forced                                   : No

Audio #3
ID                                       : 4
Format                                   : DTS
Format/Info                              : Digital Theater Systems
Format profile                           : HRA / Core
Mode                                     : 16
Format settings, Endianness              : Big
Codec ID                                 : A_DTS
Duration                                 : 1h 26mn
Bit rate mode                            : Constant
Bit rate                                 : 2 046 Kbps / 1 509 Kbps
Channel(s)                               : 6 channels
Channel positions                        : Front: L C R, Side: L R, LFE
Sampling rate                            : 48.0 KHz
Bit depth                                : 16 bits
Compression mode                         : Lossy
Stream size                              : 1.23 GiB (6%)
Title                                    : DTS-HD HR 5.1 Original @ 2046 kbps
Language                                 : English
Default                                  : No
Forced                                   : No

Text #1
ID                                       : 5
Format                                   : UTF-8
Codec ID                                 : S_TEXT/UTF8
Codec ID/Info                            : UTF-8 Plain Text
Title                                    : Forced Rus
Language                                 : Russian
Default                                  : Yes
Forced                                   : No

Text #2
ID                                       : 6
Format                                   : UTF-8
Codec ID                                 : S_TEXT/UTF8
Codec ID/Info                            : UTF-8 Plain Text
Title                                    : Full Rus
Language                                 : Russian
Default                                  : No
Forced                                   : No

Text #3
ID                                       : 7
Format                                   : UTF-8
Codec ID                                 : S_TEXT/UTF8
Codec ID/Info                            : UTF-8 Plain Text
Title                                    : Full Ukr
Language                                 : Ukrainian
Default                                  : No
Forced                                   : No

Text #4
ID                                       : 8
Format                                   : UTF-8
Codec ID                                 : S_TEXT/UTF8
Codec ID/Info                            : UTF-8 Plain Text
Title                                    : Full Eng
Language                                 : English
Default                                  : No
Forced                                   : No

Text #5
ID                                       : 9
Format                                   : UTF-8
Codec ID                                 : S_TEXT/UTF8
Codec ID/Info                            : UTF-8 Plain Text
Title                                    : SDH Eng
Language                                 : English
Default                                  : No
Forced                                   : No

Menu
00:00:00.000                             : :Chapter 01
00:05:45.568                             : :Chapter 02
00:14:46.000                             : :Chapter 03
00:22:02.000                             : :Chapter 04
00:29:56.768                             : :Chapter 05
00:39:40.559                             : :Chapter 06
00:48:33.000                             : :Chapter 07
00:55:00.520                             : :Chapter 08
01:04:12.113                             : :Chapter 09
01:10:28.000                             : :Chapter 10
01:19:31.000                             : :Chapter 11
01:23:43.158                             : :Chapter 12

Этот торрент недоступен для скачивания без регистрации, однако доступен по публичной magnet-ссылке (источники с публичных трекеров). Перед использованием ссылки прочтите, пожалуйста Пользовательское соглашение, а также как можно дольше оставайтесь на раздаче! Для того, чтобы скачать сам торрент-файл (который видит больше источников), а также для того, чтобы поблагодарить релизера, вам необходимо зарегистрироваться. Если регистрироваться лень - вы можете также попробовать скачать релиз по нашим партнерским ссылкам ниже.

[underverse.su].t35288.torrent
Трекер: Зарегистрирован   [ 16.01.2014 12:28 ]  

Статус: проверено (by матроскин at 16.01.2014 14:39)
Поблагодарили: пока никто не поблагодарил...
Тип торрента: публичный - доступные источники с открытых трекеров: 
Размер: 19,77 GB (занимает 4,52 DVDR, для записи нужно 5 болванок DVDR/RW)
 
 

Яндекс.Метрика powered by Sphinx


В Н И М А Н И Е
Сайт не распространяет и не хранит электронные версии произведений, а лишь бесплатно и без коммерческой выгоды (не требуя взамен платы,
SMS и т.д.) предоставляет доступ к создаваемому пользователями каталогу ссылок на торрент-файлы, которые содержат только списки хеш-сумм.
Убедительная просьба с жалобами обращаться напрямую к пользователю, разместившему торрент файл.

Вверх