Loading...
Error

Бренды Советской эпохи. Кавказские минеральные воды [2013 г., документальный, HDTVRip]

Статистика раздачи
Размер:  82 MB   |    Зарегистрирован:  2 года 10 месяцев   |    Скачан:  20 раз
Сидов:  1  |  0 KB/s  ]   Личеров:  0  |  0 KB/s  ]

* - сиды/пиры с внешних источников

   
 
Автор Сообщение

матроскин Пол:Муж

16-Янв-2014 07:11

Бренды Советской эпохи. Кавказские минеральные воды


Год выпуска: 2013
Жанр: документальный
Страна: Россия
Выпущено: Красное Тв
Сюжет фильма:
Кавказ-край пятигорья, под толщей его земных недр находятся огромные озера. Они и породили многочисленные источники чудесной воды которые принесли этому краю мировую известность. Даже в тяжелые для страны Советов дни в 1919 году настойчиво решались задачи развития куррортного дела. Подписанный В.И. Лениным Декрет "О лечебных местностях общегосударственного значения, провозгласил нацианолизацию куррортов. Свободный доступ был открыт для 100 тысяч отдыхающих. Все это было доступно простому Советскому человеку. Советская власть заботилась о здоровье граждан Советского Союза. А сейчас нынешней власти просто наплевать на людей.
Качество видео: HDTVRip

Продолжительность: 00:09:00
Формат: avi
Видео: xvid, 874x480, 2015 kbps
Аудио: русский, оригинал, MP3 2.0, 256 kbps

Код:

General
Complete name                    : C:\Users\Security\Desktop\Кавказские минеральные воды.avi
Format                           : AVI
Format/Info                      : Audio Video Interleave
File size                        : 81.7 MiB
Duration                         : 5mn 0s
Overall bit rate                 : 2 284 Kbps
Writing application              : Lavf52.93.0

Video
Format                           : xvid
Codec ID                         : xvid
Duration                         : 9mn 0s
Bit rate                         : 2 016 Kbps
Width                            : 874 pixels
Height                           : 480 pixels
Display aspect ratio             : 16/9
Frame rate                       : 25.000 fps
Resolution                       : 24 bits
Bits/(Pixel*Frame)               : 0.197
Stream size                      : 72.1 MiB (88%)

Audio
ID                               : 1
Format                           : MPEG Audio
Format version                   : Version 1
Format profile                   : Layer 3
Codec ID                         : 55
Codec ID/Hint                    : MP3
Duration                         : 5mn 0s
Bit rate mode                    : Constant
Bit rate                         : 256 Kbps
Channel(s)                       : 2 channels
Sampling rate                    : 44.1 KHz
Resolution                       : 16 bits
Stream size                      : 9.16 MiB (11%)
Alignment                        : Aligned on interleaves
Interleave, duration             : 26 ms (0.65 video frame)
Interleave, preload duration     : 52 ms
Writing library                  : LAME3.98.4

picpicpicpicpicpic
Для увеличения картинки щелкните мышкой по превью

Этот торрент недоступен для скачивания без регистрации, однако доступен по публичной magnet-ссылке (источники с публичных трекеров). Перед использованием ссылки прочтите, пожалуйста Пользовательское соглашение, а также как можно дольше оставайтесь на раздаче! Для того, чтобы скачать сам торрент-файл (который видит больше источников), а также для того, чтобы поблагодарить релизера, вам необходимо зарегистрироваться. Если регистрироваться лень - вы можете также попробовать скачать релиз по нашим партнерским ссылкам ниже.

[underverse.su].t35278.torrent
Трекер: Зарегистрирован   [ 16.01.2014 07:11 ]  

Статус: проверено (by матроскин at 16.01.2014 07:15)
Поблагодарили: 1 человек
Тип торрента: публичный - доступные источники с открытых трекеров: 
Размер: 82 MB (занимает 0,02 DVDR, для записи нужно 1 болванка DVDR/RW)
 
 
Похожие темы
Форум Тема Автор Торрент Отв. Посл. сооб.
Исторические фильмы Бренды Советской эпохи. Мой адрес Советский Союз. [2013 г., документальный, HDTVRip] матроскин
1 | 0

1 | 833

29

27.02.2014 13:03

Исторические фильмы Бренды Советской Эпохи [2013, документальный, TVRip] матроскин
1 | 0

3 | 830

41

14.05.2013 19:23

Исторические фильмы Бренды Советской Эпохи. Московский метрополитен. [2013 г., документальный, короткометражный HDTVRip] матроскин
1 | 1

1 | 1183

24

09.05.2013 21:05

Исторические фильмы Бренды Советской эпохи. Черная икра. [2013 г., документальный, короткометражный HDTVRip] матроскин
1 | 0

2 | 1199

19

20.07.2013 13:34

Исторические фильмы Бренды Советской эпохи. Гитара. [2013 г., документальный, короткометражный, HDTVRip] матроскин
1 | 0

1 | 1060

13

12.05.2013 11:50

Исторические фильмы Бренды Советской эпохи. Большое новоселье [2013 г., исторический, документальный, HDTVRip] матроскин
1 | 0

2 | 980

25

01.08.2013 20:07

Исторические фильмы Бренды Советской эпохи. Мопеды [2013 г., исторический, документальный, HDTVRip] матроскин
1 | 0

1 | 1016

26

11.07.2013 08:55

Исторические фильмы Бренды Советской эпохи. Московские высотки. [2013 г., исторический, документальный, HDTVRip] матроскин
1 | 0

3 | 1067

24

21.07.2014 13:02

Исторические фильмы Бренды Советской эпохи. Советские часы [2013 г., документальный, исторический, HDTVRip] матроскин
1 | 0

2 | 1822

31

12.10.2013 05:00

Исторические фильмы Бренды Советской эпохи. Столичная водка [2013 г., документальный, исторический, HDTVRip] матроскин
1 | 0

1 | 2284

36

09.10.2013 10:54

матроскин Пол:Муж

16-Янв-2014 07:23






Яндекс.Метрика powered by Sphinx


В Н И М А Н И Е
Сайт не распространяет и не хранит электронные версии произведений, а лишь бесплатно и без коммерческой выгоды (не требуя взамен платы,
SMS и т.д.) предоставляет доступ к создаваемому пользователями каталогу ссылок на торрент-файлы, которые содержат только списки хеш-сумм.
Убедительная просьба с жалобами обращаться напрямую к пользователю, разместившему торрент файл.

Вверх