Loading...
Error

Тёмный мир: Равновесие (Олег Асадулин) [2013 г., фэнтези, приключения, HDRip] HQ Underverse

Статистика раздачи
Размер:  1,45 GB   |    Зарегистрирован:  2 года 10 месяцев   |    Скачан:  152 раза
Сидов:  2  |  0 KB/s  ]   Личеров:  0  |  0 KB/s  ]

* - сиды/пиры с внешних источников

   
 
Автор Сообщение

HQ Underverse 

15-Янв-2014 11:54

Тёмный мир: Равновесие


Год выпуска: 2013
Жанр: фэнтези, приключения
Страна: Россия
Режиссер: Олег Асадулин
В ролях: Мария Пирогова, Павел Прилучный, Макар Запорожский, Евгения Брик, Александр Ратников, Владислав Абашин, Петр Семак, Алиса Хазанова, Валерий Опёнкин, Тимофей Носков
Сюжет фильма:
Каждый день они крадут твои силы, твои эмоции, твою любовь. Мы называем их Тени. Работа таких, как мы — доставлять их обратно в Тёмный мир. Надвигается катастрофа, и человечество может оказаться во власти тьмы…И только мы можем сохранить равновесие.

  • Мировая премьера: 5 декабря 2013
  • Российская премьера: 5 декабря 2013, «Централ Партнершип»


Качество видео: HDRip

Продолжительность: 01:35:10
Формат: avi
Видео: XviD, 720x304, 1791 kbps
Аудио: русский, оригинал, AC3 5.1, 384 kbps

Код:

General
Complete name                    : Z:\windoza-share\Темный мир равновесие\Temnyi.Mir.Ravnovesie.2013.HDRip.XviD.AC3.Rus.O.HQ.Underverse.avi
Format                           : AVI
Format/Info                      : Audio Video Interleave
File size                        : 1.45 GiB
Duration                         : 1h 35mn
Overall bit rate                 : 2 185 Kbps
Writing application              : VirtualDubMod 1.5.10.2 (build 2540/release)
Writing library                  : VirtualDubMod build 2540/release

Video
ID                               : 0
Format                           : MPEG-4 Visual
Format profile                   : Streaming Video@L1
Format settings, BVOP            : Yes
Format settings, QPel            : No
Format settings, GMC             : No warppoints
Format settings, Matrix          : Custom
Muxing mode                      : Packed bitstream
Codec ID                         : XVID
Codec ID/Hint                    : XviD
Duration                         : 1h 35mn
Bit rate                         : 1 792 Kbps
Width                            : 720 pixels
Height                           : 304 pixels
Display aspect ratio             : 2.35
Frame rate                       : 24.000 fps
Resolution                       : 24 bits
Colorimetry                      : 4:2:0
Scan type                        : Progressive
Bits/(Pixel*Frame)               : 0.341
Stream size                      : 1.19 GiB (82%)
Writing library                  : XviD 64

Audio
ID                               : 1
Format                           : AC-3
Format/Info                      : Audio Coding 3
Codec ID                         : 2000
Duration                         : 1h 35mn
Bit rate mode                    : Constant
Bit rate                         : 384 Kbps
Channel(s)                       : 6 channels
Channel positions                : Front: L C R, Surround: L R, LFE
Sampling rate                    : 48.0 KHz
Stream size                      : 261 MiB (18%)
Alignment                        : Split accross interleaves
Interleave, duration             : 42 ms (1.00 video frame)
Interleave, preload duration     : 500 ms

Релиз группы:

picpicpic
Для увеличения картинки щелкните мышкой по превью

Этот торрент недоступен для скачивания без регистрации, однако доступен по публичной magnet-ссылке (источники с публичных трекеров). Перед использованием ссылки прочтите, пожалуйста Пользовательское соглашение, а также как можно дольше оставайтесь на раздаче! Для того, чтобы скачать сам торрент-файл (который видит больше источников), а также для того, чтобы поблагодарить релизера, вам необходимо зарегистрироваться. Если регистрироваться лень - вы можете также попробовать скачать релиз по нашим партнерским ссылкам ниже.

[underverse.su].t35241.torrent
Трекер: Зарегистрирован   [ 15.01.2014 11:54 ]  

Статус: проверено (by HQ Underverse at 15.01.2014 11:56)
Поблагодарили: 5 человек
Тип торрента: публичный - доступные источники с открытых трекеров: 
Размер: 1,45 GB (занимает 1/3 DVDR, для записи нужно 1 болванка DVDR/RW)
 
 
Похожие темы
Форум Тема Автор Торрент Отв. Посл. сооб.
Зарубежное кино [DVDRip, Low-Res HDRip, и т.д.] Тёмный мир / Finsterworld (Фрауке Финстервальдер) [2013 г., драма, DVDRip] VO [PashaUp] Паукан
13 | 1

0 | 818

8

22.12.2014 10:34

Наше кино [DVDRip, Low-Res HDRip, и т.д.] Темный мир (Антон Мегердичев) [2010 г., триллер, фэнтези, DVDRip] GUree
0 | 0

3 | 1347

6

14.07.2012 17:51

Наше кино [DVDRip, Low-Res HDRip, и т.д.] Тёмный мир: Равновесие (Олег Асадулин) [2013 г., фэнтези, приключения, DVDRip-AVC] 90ytr90
0 | 0

0 | 386

5

24.04.2014 04:29

Наше кино [DVDRip, Low-Res HDRip, и т.д.] Тёмный мир: Равновесие (Олег Асадулин) [2013 г., фэнтези, приключения, BDRip-AVC] [Ger Transfer] Original + Ger + Sub (Ger) 90ytr90
2 | 0

0 | 497

11

13.01.2015 19:10

Наше кино [DVDRip, Low-Res HDRip, и т.д.] Тёмный мир: Равновесие (Олег Асадулин) [2013 г., фэнтези, приключения, BDRip] 90ytr90
17 | 0

0 | 485

5

02.02.2015 16:09

xUSSR сериалы Тёмный мир: Равновесие [серии 01-12 из 12] (Олег Асадулин) [2014 г., фэнтези, приключения, SATRip] 90ytr90
2 | 0

0 | 1555

29

12.05.2014 17:45

Наше кино [DVD / HDDVD / BD / Remux] Темный мир 2D / 3D (Антон Мегердичев) [2010 г., триллер, фэнтези, DVD-9] SKRiptus
1 | 1

1 | 1116

7

16.11.2010 20:27

Наше кино [HDDVDRip / BDRip / WEB-DL / HDTV 1080/720р] Темный Мир (Антон Мегердичев) [2010 г., Фэнтези, Триллер, BDRip 720p] Ведьмочка
2 | 1

0 | 1149

17

04.07.2014 02:10

# Наше кино [HDDVDRip / BDRip / WEB-DL / HDTV 1080/720р] Тёмный мир: Равновесие (Олег Асадулин) [2013 г., фэнтези, приключения, BDRip 720p] Original + Ger + Sub (Ger) 90ytr90
2 | 0

0 | 502

7

13.01.2015 19:04

# Наше кино [HDDVDRip / BDRip / WEB-DL / HDTV 1080/720р] Тёмный мир: Равновесие (Олег Асадулин) [2013 г., фэнтези, приключения, BDRip 720p] [Ger Transfer] 90ytr90
2 | 0

0 | 646

8

17.01.2015 08:30

alexey19 Пол:Муж

18-Янв-2014 10:33

режим камеры перекодирован, качество камеры с оцифровкой, урезана

Паукан Пол:Муж

22-Янв-2014 12:46

alexey19
Не думаю, что лицензионный BluRay будет лучше :)

Яндекс.Метрика powered by Sphinx


В Н И М А Н И Е
Сайт не распространяет и не хранит электронные версии произведений, а лишь бесплатно и без коммерческой выгоды (не требуя взамен платы,
SMS и т.д.) предоставляет доступ к создаваемому пользователями каталогу ссылок на торрент-файлы, которые содержат только списки хеш-сумм.
Убедительная просьба с жалобами обращаться напрямую к пользователю, разместившему торрент файл.

Вверх