Loading...
Error

(Шансон) Группа Белое золото - Ночной поезд (2013) [FLAC (Image+.CUE), Lossless]

Статистика раздачи
Размер:  324 MB   |    Зарегистрирован:  4 года 7 месяцев   |    Скачан:  16 раз

Полного источника не было: 7 месяцев

Сидов:  0  |  0 KB/s  ]   Личеров:  0  |  0 KB/s  ]

* - сиды/пиры с внешних источников

   
 
Автор Сообщение

Бишеп Пол:Муж

12-Янв-2014 06:24

Группа Белое золото - Ночной поезд

Жанр: Шансон
Год выпуска: 2013
Производитель диска: Classic Company - CC CD 40/13
Аудиокодек: FLAC
Тип рипа: Image+.CUE
Битрейт аудио: Lossless
Продолжительность: 00:36:02
Треклист:
01. Ночной поезд
02. Города
03. Белый снег
04. Любимая женщина
05. Улетай
06. Достань звезду
07. Виновата не ты
08. Это всё дождь
09. Одна такая
10. Абонент недоступен

Exact Audio Copy V0.99 prebeta 5 from 4. May 2009

EAC extraction logfile from 3. September 2013, 21:55

Белое золото / Ночной поезд

Used drive : PIONEER DVD-RW DVR-212 Adapter: 7 ID: 0

Read mode : Secure
Utilize accurate stream : Yes
Defeat audio cache : Yes
Make use of C2 pointers : No

Read offset correction : 48
Overread into Lead-In and Lead-Out : No
Fill up missing offset samples with silence : Yes
Delete leading and trailing silent blocks : No
Null samples used in CRC calculations : Yes
Used interface : Installed external ASPI interface

Used output format : Internal WAV Routines
Sample format : 44.100 Hz; 16 Bit; Stereo

TOC of the extracted CD

Track | Start | Length | Start sector | End sector
---------------------------------------------------------
1 | 0:00.00 | 3:45.44 | 0 | 16918
2 | 3:45.44 | 3:32.14 | 16919 | 32832
3 | 7:17.58 | 4:10.66 | 32833 | 51648
4 | 11:28.49 | 3:37.37 | 51649 | 67960
5 | 15:06.11 | 3:49.05 | 67961 | 85140
6 | 18:55.16 | 3:13.53 | 85141 | 99668
7 | 22:08.69 | 3:24.21 | 99669 | 114989
8 | 25:33.15 | 3:21.63 | 114990 | 130127
9 | 28:55.03 | 3:59.25 | 130128 | 148077
10 | 32:54.28 | 3:08.07 | 148078 | 162184

Range status and errors

Selected range

Filename M:\FLAC (bruk67)\MP3\Белое золото - Ночной поезд (2013)\Белое золото - Ночной поезд.wav

Peak level 100.0 %
Range quality 100.0 %
Test CRC 70CA95AC
Copy CRC 70CA95AC
Copy OK

No errors occurred

AccurateRip summary
Track 1 not present in database
Track 2 not present in database
Track 3 not present in database
Track 4 not present in database
Track 5 not present in database
Track 6 not present in database
Track 7 not present in database
Track 8 not present in database
Track 9 not present in database
Track 10 not present in database
None of the tracks are present in the AccurateRip database

End of status report

pic
Для увеличения картинки щелкните мышкой по превью

Этот торрент недоступен для скачивания без регистрации, однако доступен по публичной magnet-ссылке (источники с публичных трекеров). Перед использованием ссылки прочтите, пожалуйста Пользовательское соглашение, а также как можно дольше оставайтесь на раздаче! Для того, чтобы скачать сам торрент-файл (который видит больше источников), а также для того, чтобы поблагодарить релизера, вам необходимо зарегистрироваться. Если регистрироваться лень - вы можете также попробовать скачать релиз по нашим партнерским ссылкам ниже. Кроме того, зарегистрированным пользователям не показывается всплывающая реклама при скачивании.

[underverse.su].t35158.torrent
Трекер: Зарегистрирован   [ 12.01.2014 06:24 ]  

Статус: проверено (by Бишеп at 12.01.2014 06:24)
Поблагодарили: 2 человека
Тип торрента: публичный - доступные источники с открытых трекеров: 
Размер: 324 MB (занимает 0,07 DVDR, для записи нужно 1 болванка DVDR/RW)
 
 
Похожие темы
Форум Тема Автор Торрент Отв. Посл. сооб.
Шансон (Шансон) Григорий Лепс и Александр Розенбаум - Берега чистого братства (2011) [MP3, 320 kbps] aretemka178
1 | 0

1 | 2059

51

04.01.2012 07:54

Шансон (Шансон) Григорий Лепс - Песни Владимира Высоцкого (Переиздание) - 2008, MP3, 320 kbps Bugor
0 | 0

0 | 2945

32

11.09.2012 17:34

Шансон (Шансон) Григорий Лепс - Дуэты (2012) [MP3, 320 kbps CBR] terra07
7 | 1

0 | 2179

48

04.09.2013 18:28

Шансон (Шансон) Группа Кабриолет - Золотой альбом (Golden Album) (2011) [MP3, 320 kbps CBR] valera87
3 | 1

0 | 2889

24

16.12.2013 19:56

Шансон (Lossless) (Шансон) Группа Весна - Самый близкий человек (2013) [FLAC (Image+.CUE), Lossless] Бишеп
1 | 0

1 | 2503

10

20.11.2013 04:25

Шансон (Lossless) (Шансон) Григорий Лепс - Серия: Музыкальный архив. Возвращение к истокам (2003) [FLAC (Image+.CUE), Lossless] Бишеп
1 | 0

0 | 2088

8

25.11.2013 13:37

Шансон (Lossless) (Шансон) Группа Бутырка - Новая коллекция. Лучшие песни. Часть II (2011) [FLAC (Image+.CUE), Lossless] Бишеп
1 | 0

1 | 2552

14

22.06.2014 21:30

Шансон (Lossless) (Шансон) Григорий Лепс - Водопад (Переиздание) (2009) [FLAC (Image+.CUE), Lossless] Бишеп
2 | 0

1 | 1365

13

22.06.2014 21:28

Шансон (Lossless) (Шансон) Григорий Лепс - Пенсне (2011) [FLAC (Image+.CUE), Lossless] Бишеп
1 | 0

0 | 1310

3

28.12.2014 17:13

Шансон (Lossless) (Шансон) Григорий Лепс, Александр Розенбаум - Берега чистого братства (2011) [FLAC (Tracks+.CUE), Lossless] Бишеп
5 | 0

0 | 1251

22

04.02.2015 12:37


Яндекс.Метрика powered by Sphinx


В Н И М А Н И Е
Сайт не распространяет и не хранит электронные версии произведений, а лишь бесплатно и без коммерческой выгоды (не требуя взамен платы,
SMS и т.д.) предоставляет доступ к создаваемому пользователями каталогу ссылок на торрент-файлы, которые содержат только списки хеш-сумм.
Убедительная просьба с жалобами обращаться напрямую к пользователю, разместившему торрент файл.

Вверх