Loading...
Error

Земляк / Серии: 1-6 (6) (Максим Бриус) [2014 г., Остросюжетный сериал, SatRip]

Статистика раздачи
Размер:  4,01 GB   |    Зарегистрирован:  2 года 10 месяцев   |    Скачан:  51 раз

Полного источника не было: 10 месяцев

Сидов:  0  |  0 KB/s  ]   Личеров:  0  |  0 KB/s  ]

* - сиды/пиры с внешних источников

   
 
Автор Сообщение

nemos Пол:Муж

12-Янв-2014 02:02


Год выпуска: 2014
Жанр: Остросюжетный сериал
Страна: Россия
Режиссер: Максим Бриус
В ролях: Николай Мачульский, Сергей Власов, Илья Капанец, Лариса Маршалова, Вероника Пляшкевич

Качество видео: SatRip

Продолжительность: 00:44:30 серия
Формат: AVI
Видео: DivX, 720х400, 1799 kbps
Аудио: русский, MP3 2.0, 128 kbps

Если ты прав, это еще не значит, что справедливость будет на твоей стороне. Такую горькую истину на собственном опыте пришлось познать майору полиции Матвею Широкову. Будучи отличным оперативником, он "пошел на принцип" и, несмотря на приказ руководства, надел наручники на сына "крупной шишки" Руслана Алпарова, который оказался причастен к изнасилованию и убийству молодой девчонки. Но за блестяще организованную операцию Матвей получает отнюдь не орден, а нагоняй и увольнение...

Код:

E:\Фильмы (роздача)\Zemlyak.2013.SATRip.KZ\Zemlyak.6.2013.SATRip.KZ.avi
   General
      Complete name : E:\Фильмы (роздача)\Zemlyak.2013.SATRip.KZ\Zemlyak.6.2013.SATRip.KZ.avi
      Format : AVI
      Format/Info : Audio Video Interleave
      File size : 617 MiB
      Duration : 44mn 30s
      Overall bit rate : 1 937 Kbps
      Writing library : VirtualDub build 35491/release
   Video #0
      ID : 0
      Format : MPEG-4 Visual
      Format settings, BVOP : 1
      Format settings, QPel : No
      Format settings, GMC : No warppoints
      Format settings, Matrix : Default (H.263)
      Muxing mode : Packed bitstream
      Codec ID : DX50
      Codec ID/Hint : DivX 5
      Duration : 44mn 30s
      Bit rate : 1 799 Kbps
      Width : 720 pixels
      Height : 400 pixels
      Display aspect ratio : 16:9
      Frame rate : 25.000 fps
      Color space : YUV
      Chroma subsampling : 4:2:0
      Bit depth : 8 bits
      Scan type : Progressive
      Compression mode : Lossy
      Bits/(Pixel*Frame) : 0.250
      Stream size : 573 MiB (93%)
      Writing library : DivX 6.8.5 (UTC 2009-08-20)
   Audio #1
      ID : 1
      Format : MPEG Audio
      Format version : Version 1
      Format profile : Layer 3
      Mode : Joint stereo
      Mode extension : MS Stereo
      Codec ID : 55
      Codec ID/Hint : MP3
      Duration : 44mn 30s
      Bit rate mode : Constant
      Bit rate : 128 Kbps
      Channel(s) : 2 channels
      Sampling rate : 48.0 KHz
      Compression mode : Lossy
      Stream size : 40.7 MiB (7%)
      Alignment : Split accross interleaves
      Interleave, duration : 40 ms (1.00 video frame)
      Interleave, preload duration : 500 ms
Семпл: http://multi-up.com/939463

picpicpicpicpicpicpicpicpicpicpicpicpicpic
Для увеличения картинки щелкните мышкой по превью

Этот торрент недоступен для скачивания без регистрации, однако доступен по публичной magnet-ссылке (источники с публичных трекеров). Перед использованием ссылки прочтите, пожалуйста Пользовательское соглашение, а также как можно дольше оставайтесь на раздаче! Для того, чтобы скачать сам торрент-файл (который видит больше источников), а также для того, чтобы поблагодарить релизера, вам необходимо зарегистрироваться. Если регистрироваться лень - вы можете также попробовать скачать релиз по нашим партнерским ссылкам ниже.

[underverse.su].t35155.torrent
Трекер: Зарегистрирован   [ 12.01.2014 02:02 ]  

Статус: проверено (by 90ytr90 at 12.01.2014 13:41)
Поблагодарили: 6 человек
Тип торрента: публичный - доступные источники с открытых трекеров: 
Размер: 4,01 GB (занимает 0,92 DVDR, для записи нужно 1 болванка DVDR/RW)
 
 


Последний раз редактировалось: nemos (01.02.2014 07:04), всего редактировалось 9 раз(а)

nemos Пол:Муж

12-Янв-2014 02:03

На кинопоиске пока отсутствует! Появится, сделаю ссылку.

nemos Пол:Муж

01-Фев-2014 07:06

С кинопоиска обновил http://www.kinopoisk.ru/film/818904/

Яндекс.Метрика powered by Sphinx


В Н И М А Н И Е
Сайт не распространяет и не хранит электронные версии произведений, а лишь бесплатно и без коммерческой выгоды (не требуя взамен платы,
SMS и т.д.) предоставляет доступ к создаваемому пользователями каталогу ссылок на торрент-файлы, которые содержат только списки хеш-сумм.
Убедительная просьба с жалобами обращаться напрямую к пользователю, разместившему торрент файл.

Вверх