Loading...
Error

Двадцатый век / Novecento / 1900 (Бернардо Бертолуччи) [1976 г., драма, история, BDRip] MVO

Статистика раздачи
Размер:  2,92 GB   |    Зарегистрирован:  2 года 10 месяцев   |    Скачан:  5 раз

Полного источника не было: 7 месяцев

Сидов:  0  |  0 KB/s  ]   Личеров:  0  |  0 KB/s  ]

* - сиды/пиры с внешних источников

   
 
Автор Сообщение

garry Пол:Муж

11-Янв-2014 07:18

Двадцатый век / Novecento / 1900


Год выпуска: 1976
Жанр: драма, история
Страна: Франция , Италия , Германия
Режиссер: Бернардо Бертолуччи
В ролях: Роберт Де Ниро, Жерар Депардье, Берт Ланкастер, Дональд Сазерленд, Доминик Санда, Стефания Сандрелли, Стерлинг Хейден, Франческа Бертини, Лаура Бетти, Вернер Брунс
Сюжет фильма:
Прекрасным летним утром 1900 года в итальянской провинции Эмилия появляются на свет два мальчика. Олмо — еще один рот в многодетной семье бедного крестьянина. Альфредо — отпрыск богатых помещиков. Несмотря на столь различное социальное положение, мальчики не только подружатся, но пронесут дружбу через всю свою жизнь.Они — дети страшных лет Европы, чье отрочество придется на годы Первой мировой войны, а зрелость вступит в свои права под грохот гитлеровских орудий. Да и в промежутке событий будет предостаточно. Фашистская Италия — страна неспокойная. Меняется вековой уклад общества, народ все больше узнает от социалистов о своих правах, Муссолини использует смуту для захвата власти.Ветер перемен врывается и в провинцию Эмилия. Обостряются отношения крестьян и землевладельцев, но Олмо и Альфредо остаются друзьями. Сплетение судеб — близких и бесконечно далеких, сплетение жизни личности и жизни страны.

  • Мировая премьера: 21 мая 1976


Качество видео: BDRip

Продолжительность: 05:15:34
Формат: AVI
Видео: XviD, 688x368, 1189 kbps
Аудио: русский, многоголосый закадровый [профессиональный], MP3 2.0, 128 kbps

Код:

General
Complete name                            : D:\Downloads\Novecento.1976.BDRip_[2.91]_[teko].avi
Format                                   : AVI
Format/Info                              : Audio Video Interleave
Format profile                           : OpenDML
File size                                : 2.92 GiB
Duration                                 : 5h 15mn
Overall bit rate                         : 1 324 Kbps
Writing application                      : VirtualDubMod 1.5.10.2 (build 2540/release)
Writing library                          : VirtualDubMod build 2540/release

Video
ID                                       : 0
Format                                   : MPEG-4 Visual
Format profile                           : Advanced Simple@L5
Format settings, BVOP                    : 1
Format settings, QPel                    : No
Format settings, GMC                     : No warppoints
Format settings, Matrix                  : Custom
Codec ID                                 : XVID
Codec ID/Hint                            : XviD
Duration                                 : 5h 15mn
Bit rate                                 : 1 186 Kbps
Width                                    : 688 pixels
Height                                   : 368 pixels
Display aspect ratio                     : 1.85:1
Frame rate                               : 24.000 fps
Color space                              : YUV
Chroma subsampling                       : 4:2:0
Bit depth                                : 8 bits
Scan type                                : Progressive
Compression mode                         : Lossy
Bits/(Pixel*Frame)                       : 0.195
Stream size                              : 2.61 GiB (90%)
Writing library                          : XviD 1.2.1 (UTC 2008-12-04)

Audio
ID                                       : 1
Format                                   : MPEG Audio
Format version                           : Version 1
Format profile                           : Layer 3
Codec ID                                 : 55
Codec ID/Hint                            : MP3
Duration                                 : 5h 15mn
Bit rate mode                            : Constant
Bit rate                                 : 128 Kbps
Channel count                            : 2 channels
Sampling rate                            : 48.0 KHz
Compression mode                         : Lossy
Stream size                              : 289 MiB (10%)
Alignment                                : Aligned on interleaves
Interleave, duration                     : 42 ms (1.00 video frame)
Interleave, preload duration             : 504 ms
Writing library                          : LAME3.98r
Encoding settings                        : -m s -V 4 -q 2 -lowpass 17 -b 128
Релиз: teko

picpicpic
Для увеличения картинки щелкните мышкой по превью

Этот торрент недоступен для скачивания без регистрации, однако доступен по публичной magnet-ссылке (источники с публичных трекеров). Перед использованием ссылки прочтите, пожалуйста Пользовательское соглашение, а также как можно дольше оставайтесь на раздаче! Для того, чтобы скачать сам торрент-файл (который видит больше источников), а также для того, чтобы поблагодарить релизера, вам необходимо зарегистрироваться. Если регистрироваться лень - вы можете также попробовать скачать релиз по нашим партнерским ссылкам ниже.

[underverse.su].t35124.torrent
Трекер: Зарегистрирован   [ 11.01.2014 07:18 ]  

Статус: проверено (by garry at 11.01.2014 07:19)
Поблагодарили: пока никто не поблагодарил...
Тип торрента: публичный - доступные источники с открытых трекеров: 
Размер: 2,92 GB (занимает 0,67 DVDR, для записи нужно 1 болванка DVDR/RW)
 
 
Похожие темы
Форум Тема Автор Торрент Отв. Посл. сооб.
Зарубежное кино [HDDVDRip / BDRip / WEB-DL / HDTV 1080/720р] Двадцатый век / Novecento / 1900 (Бернардо Бертолуччи / Bernardo Bertolucci) [1976 г., драма, история, BDRip 720p] 2xMVO + AVO + 2xOriginal garry
7 | 0

0 | 1472

5

06.01.2014 20:43


Яндекс.Метрика powered by Sphinx


В Н И М А Н И Е
Сайт не распространяет и не хранит электронные версии произведений, а лишь бесплатно и без коммерческой выгоды (не требуя взамен платы,
SMS и т.д.) предоставляет доступ к создаваемому пользователями каталогу ссылок на торрент-файлы, которые содержат только списки хеш-сумм.
Убедительная просьба с жалобами обращаться напрямую к пользователю, разместившему торрент файл.

Вверх