Loading...
Error

ТАСС уполномочен заявить… (Владимир Фокин) [1984 г., приключения, детектив, DVB]

Статистика раздачи
Размер:  14,76 GB   |    Зарегистрирован:  2 года 10 месяцев   |    Скачан:  20 раз

Полного источника не было: 6 дней

Сидов:  0  |  0 KB/s  ]   Личеров:  0  |  0 KB/s  ]

* - сиды/пиры с внешних источников

   
 
Автор Сообщение

garry Пол:Муж

11-Янв-2014 07:03

ТАСС уполномочен заявить…

Год выпуска: 1984
Жанр: приключения, детектив
Страна: СССР
Режиссер: Владимир Фокин
В ролях: Вячеслав Тихонов, Юрий Соломин, Вахтанг Кикабидзе, Николай Засухин, Алексей Петренко, Ивар Калныньш, Николай Михеев, Николай Скоробогатов, Михаил Глузский, Ирина Алферова
Сюжет фильма:
Советские разведчики поставлены перед сложной и опасной задачей — срочно выявить агента ЦРУ, живущего в Москве и работающего в учреждении, куда поступает вся информация по «африканскому узлу». От оперативности решения этой задачи зависят судьбы не толькоотдельных людей, но и целого государства — африканской страны Нагонии…

  • Мировая премьера: 30 июля 1984

/
Качество видео: DVB

Продолжительность: ~01:06:00 x 10
Формат: mpg
Видео: MPEG Video, 720x576, 2879 kbps
Аудио: русский, оригинал, MPEG Audio, 192 kbps

Код:

General
 Complete name : D:\Torrent\ТАСС уполномочен заявить\01 ТАСС УПОЛНОМОЧЕН ЗАЯВИТЬ (Дом Кино).mpg
 Format : MPEG-PS
 File size : 1.46 GiB
 Duration : 1h 6mn
 Overall bit rate mode : Variable
 Overall bit rate : 3 134 Kbps

Video
 ID : 224 (0xE0)
 Format : MPEG Video
 Format version : Version 2
 Format profile : Main@Main
 Format settings, BVOP : Yes
 Format settings, Matrix : Custom
 Duration : 1h 6mn
 Bit rate mode : Variable
 Bit rate : 2 879 Kbps
 Maximum bit rate : 5 000 Kbps
 Width : 720 pixels
 Height : 576 pixels
 Display aspect ratio : 4:3
 Frame rate : 25.000 fps
 Standard : PAL
 Color space : YUV
 Chroma subsampling : 4:2:0
 Bit depth : 8 bits
 Scan type : Interlaced
 Scan order : Top Field First
 Compression mode : Lossy
 Bits/(Pixel*Frame) : 0.278
 Stream size : 1.34 GiB (92%)

Audio
 ID : 192 (0xC0)
 Format : MPEG Audio
 Format version : Version 1
 Format profile : Layer 2
 Duration : 1h 6mn
 Bit rate mode : Constant
 Bit rate : 192 Kbps
 Channel(s) : 2 channels
 Sampling rate : 48.0 KHz
 Compression mode : Lossy
 Stream size : 91.5 MiB (6%)

General
 Complete name : D:\Torrent\ТАСС уполномочен заявить\02 ТАСС УПОЛНОМОЧЕН ЗАЯВИТЬ (Дом Кино).mpg
 Format : MPEG-PS
 File size : 1.46 GiB
 Duration : 1h 6mn
 Overall bit rate mode : Variable
 Overall bit rate : 3 146 Kbps

Video
 ID : 224 (0xE0)
 Format : MPEG Video
 Format version : Version 2
 Format profile : Main@Main
 Format settings, BVOP : Yes
 Format settings, Matrix : Custom
 Duration : 1h 6mn
 Bit rate mode : Variable
 Bit rate : 2 892 Kbps
 Maximum bit rate : 5 000 Kbps
 Width : 720 pixels
 Height : 576 pixels
 Display aspect ratio : 4:3
 Frame rate : 25.000 fps
 Standard : PAL
 Color space : YUV
 Chroma subsampling : 4:2:0
 Bit depth : 8 bits
 Scan type : Interlaced
 Scan order : Top Field First
 Compression mode : Lossy
 Bits/(Pixel*Frame) : 0.279
 Stream size : 1.34 GiB (92%)

Audio
 ID : 192 (0xC0)
 Format : MPEG Audio
 Format version : Version 1
 Format profile : Layer 2
 Duration : 1h 6mn
 Bit rate mode : Constant
 Bit rate : 192 Kbps
 Channel(s) : 2 channels
 Sampling rate : 48.0 KHz
 Compression mode : Lossy
 Stream size : 91.4 MiB (6%)

General
 Complete name : D:\Torrent\ТАСС уполномочен заявить\03 ТАСС УПОЛНОМОЧЕН ЗАЯВИТЬ (Дом Кино).mpg
 Format : MPEG-PS
 File size : 1.47 GiB
 Duration : 1h 5mn
 Overall bit rate mode : Variable
 Overall bit rate : 3 197 Kbps

Video
 ID : 224 (0xE0)
 Format : MPEG Video
 Format version : Version 2
 Format profile : Main@Main
 Format settings, BVOP : Yes
 Format settings, Matrix : Custom
 Duration : 1h 5mn
 Bit rate mode : Variable
 Bit rate : 2 941 Kbps
 Maximum bit rate : 5 000 Kbps
 Width : 720 pixels
 Height : 576 pixels
 Display aspect ratio : 4:3
 Frame rate : 25.000 fps
 Standard : PAL
 Color space : YUV
 Chroma subsampling : 4:2:0
 Bit depth : 8 bits
 Scan type : Interlaced
 Scan order : Top Field First
 Compression mode : Lossy
 Bits/(Pixel*Frame) : 0.284
 Stream size : 1.36 GiB (92%)

Audio
 ID : 192 (0xC0)
 Format : MPEG Audio
 Format version : Version 1
 Format profile : Layer 2
 Duration : 1h 5mn
 Bit rate mode : Constant
 Bit rate : 192 Kbps
 Channel(s) : 2 channels
 Sampling rate : 48.0 KHz
 Compression mode : Lossy
 Stream size : 90.6 MiB (6%)

General
 Complete name : D:\Torrent\ТАСС уполномочен заявить\04 ТАСС УПОЛНОМОЧЕН ЗАЯВИТЬ (Дом Кино).mpg
 Format : MPEG-PS
 File size : 1.50 GiB
 Duration : 1h 6mn
 Overall bit rate mode : Variable
 Overall bit rate : 3 234 Kbps

Video
 ID : 224 (0xE0)
 Format : MPEG Video
 Format version : Version 2
 Format profile : Main@Main
 Format settings, BVOP : Yes
 Format settings, Matrix : Custom
 Duration : 1h 6mn
 Bit rate mode : Variable
 Bit rate : 2 978 Kbps
 Maximum bit rate : 5 000 Kbps
 Width : 720 pixels
 Height : 576 pixels
 Display aspect ratio : 4:3
 Frame rate : 25.000 fps
 Standard : PAL
 Color space : YUV
 Chroma subsampling : 4:2:0
 Bit depth : 8 bits
 Scan type : Interlaced
 Scan order : Top Field First
 Compression mode : Lossy
 Bits/(Pixel*Frame) : 0.287
 Stream size : 1.38 GiB (92%)

Audio
 ID : 192 (0xC0)
 Format : MPEG Audio
 Format version : Version 1
 Format profile : Layer 2
 Duration : 1h 6mn
 Bit rate mode : Constant
 Bit rate : 192 Kbps
 Channel(s) : 2 channels
 Sampling rate : 48.0 KHz
 Compression mode : Lossy
 Stream size : 91.0 MiB (6%)

General
 Complete name : D:\Torrent\ТАСС уполномочен заявить\05 ТАСС УПОЛНОМОЧЕН ЗАЯВИТЬ (Дом Кино).mpg
 Format : MPEG-PS
 File size : 1.47 GiB
 Duration : 1h 5mn
 Overall bit rate mode : Variable
 Overall bit rate : 3 204 Kbps

Video
 ID : 224 (0xE0)
 Format : MPEG Video
 Format version : Version 2
 Format profile : Main@Main
 Format settings, BVOP : Yes
 Format settings, Matrix : Custom
 Duration : 1h 5mn
 Bit rate mode : Variable
 Bit rate : 2 949 Kbps
 Maximum bit rate : 5 000 Kbps
 Width : 720 pixels
 Height : 576 pixels
 Display aspect ratio : 4:3
 Frame rate : 25.000 fps
 Standard : PAL
 Color space : YUV
 Chroma subsampling : 4:2:0
 Bit depth : 8 bits
 Scan type : Interlaced
 Scan order : Top Field First
 Compression mode : Lossy
 Bits/(Pixel*Frame) : 0.284
 Stream size : 1.35 GiB (92%)

Audio
 ID : 192 (0xC0)
 Format : MPEG Audio
 Format version : Version 1
 Format profile : Layer 2
 Duration : 1h 5mn
 Bit rate mode : Constant
 Bit rate : 192 Kbps
 Channel(s) : 2 channels
 Sampling rate : 48.0 KHz
 Compression mode : Lossy
 Stream size : 90.3 MiB (6%)

General
 Complete name : D:\Torrent\ТАСС уполномочен заявить\06 ТАСС УПОЛНОМОЧЕН ЗАЯВИТЬ (Дом Кино).mpg
 Format : MPEG-PS
 File size : 1.46 GiB
 Duration : 1h 6mn
 Overall bit rate mode : Variable
 Overall bit rate : 3 136 Kbps

Video
 ID : 224 (0xE0)
 Format : MPEG Video
 Format version : Version 2
 Format profile : Main@Main
 Format settings, BVOP : Yes
 Format settings, Matrix : Custom
 Duration : 1h 6mn
 Bit rate mode : Variable
 Bit rate : 2 882 Kbps
 Maximum bit rate : 5 000 Kbps
 Width : 720 pixels
 Height : 576 pixels
 Display aspect ratio : 4:3
 Frame rate : 25.000 fps
 Standard : PAL
 Color space : YUV
 Chroma subsampling : 4:2:0
 Bit depth : 8 bits
 Scan type : Interlaced
 Scan order : Top Field First
 Compression mode : Lossy
 Bits/(Pixel*Frame) : 0.278
 Stream size : 1.34 GiB (92%)

Audio
 ID : 192 (0xC0)
 Format : MPEG Audio
 Format version : Version 1
 Format profile : Layer 2
 Duration : 1h 6mn
 Bit rate mode : Constant
 Bit rate : 192 Kbps
 Channel(s) : 2 channels
 Sampling rate : 48.0 KHz
 Compression mode : Lossy
 Stream size : 91.8 MiB (6%)

General
 Complete name : D:\Torrent\ТАСС уполномочен заявить\07 ТАСС УПОЛНОМОЧЕН ЗАЯВИТЬ (Дом Кино).mpg
 Format : MPEG-PS
 File size : 1.67 GiB
 Duration : 1h 15mn
 Overall bit rate mode : Variable
 Overall bit rate : 3 147 Kbps

Video
 ID : 224 (0xE0)
 Format : MPEG Video
 Format version : Version 2
 Format profile : Main@Main
 Format settings, BVOP : Yes
 Format settings, Matrix : Custom
 Format settings, GOP : M=3, N=12
 Duration : 1h 15mn
 Bit rate mode : Variable
 Bit rate : 2 892 Kbps
 Maximum bit rate : 5 000 Kbps
 Width : 720 pixels
 Height : 576 pixels
 Display aspect ratio : 4:3
 Frame rate : 25.000 fps
 Standard : PAL
 Color space : YUV
 Chroma subsampling : 4:2:0
 Bit depth : 8 bits
 Scan type : Interlaced
 Scan order : Top Field First
 Compression mode : Lossy
 Bits/(Pixel*Frame) : 0.279
 Stream size : 1.53 GiB (92%)

Audio
 ID : 192 (0xC0)
 Format : MPEG Audio
 Format version : Version 1
 Format profile : Layer 2
 Duration : 1h 15mn
 Bit rate mode : Constant
 Bit rate : 192 Kbps
 Channel(s) : 2 channels
 Sampling rate : 48.0 KHz
 Compression mode : Lossy
 Stream size : 104 MiB (6%)

General
 Complete name : D:\Torrent\ТАСС уполномочен заявить\08 ТАСС УПОЛНОМОЧЕН ЗАЯВИТЬ (Дом Кино).mpg
 Format : MPEG-PS
 File size : 1.45 GiB
 Duration : 1h 6mn
 Overall bit rate mode : Variable
 Overall bit rate : 3 137 Kbps

Video
 ID : 224 (0xE0)
 Format : MPEG Video
 Format version : Version 2
 Format profile : Main@Main
 Format settings, BVOP : Yes
 Format settings, Matrix : Custom
 Duration : 1h 6mn
 Bit rate mode : Variable
 Bit rate : 2 882 Kbps
 Maximum bit rate : 5 000 Kbps
 Width : 720 pixels
 Height : 576 pixels
 Display aspect ratio : 4:3
 Frame rate : 25.000 fps
 Standard : PAL
 Color space : YUV
 Chroma subsampling : 4:2:0
 Bit depth : 8 bits
 Scan type : Interlaced
 Scan order : Top Field First
 Compression mode : Lossy
 Bits/(Pixel*Frame) : 0.278
 Stream size : 1.33 GiB (92%)

Audio
 ID : 192 (0xC0)
 Format : MPEG Audio
 Format version : Version 1
 Format profile : Layer 2
 Duration : 1h 6mn
 Bit rate mode : Constant
 Bit rate : 192 Kbps
 Channel(s) : 2 channels
 Sampling rate : 48.0 KHz
 Compression mode : Lossy
 Stream size : 91.1 MiB (6%)

General
 Complete name : D:\Torrent\ТАСС уполномочен заявить\09 ТАСС УПОЛНОМОЧЕН ЗАЯВИТЬ (Дом Кино).mpg
 Format : MPEG-PS
 File size : 1.39 GiB
 Duration : 1h 3mn
 Overall bit rate mode : Variable
 Overall bit rate : 3 155 Kbps

Video
 ID : 224 (0xE0)
 Format : MPEG Video
 Format version : Version 2
 Format profile : Main@Main
 Format settings, BVOP : Yes
 Format settings, Matrix : Custom
 Duration : 1h 3mn
 Bit rate mode : Variable
 Bit rate : 2 901 Kbps
 Maximum bit rate : 5 000 Kbps
 Width : 720 pixels
 Height : 576 pixels
 Display aspect ratio : 4:3
 Frame rate : 25.000 fps
 Standard : PAL
 Color space : YUV
 Chroma subsampling : 4:2:0
 Bit depth : 8 bits
 Scan type : Interlaced
 Scan order : Top Field First
 Compression mode : Lossy
 Bits/(Pixel*Frame) : 0.280
 Stream size : 1.28 GiB (92%)

Audio
 ID : 192 (0xC0)
 Format : MPEG Audio
 Format version : Version 1
 Format profile : Layer 2
 Duration : 1h 3mn
 Bit rate mode : Constant
 Bit rate : 192 Kbps
 Channel(s) : 2 channels
 Sampling rate : 48.0 KHz
 Compression mode : Lossy
 Stream size : 86.9 MiB (6%)

General
 Complete name : D:\Torrent\ТАСС уполномочен заявить\10 ТАСС УПОЛНОМОЧЕН ЗАЯВИТЬ (Дом Кино).mpg
 Format : MPEG-PS
 File size : 1.42 GiB
 Duration : 1h 4mn
 Overall bit rate mode : Variable
 Overall bit rate : 3 148 Kbps

Video
 ID : 224 (0xE0)
 Format : MPEG Video
 Format version : Version 2
 Format profile : Main@Main
 Format settings, BVOP : Yes
 Format settings, Matrix : Custom
 Duration : 1h 4mn
 Bit rate mode : Variable
 Bit rate : 2 893 Kbps
 Maximum bit rate : 5 000 Kbps
 Width : 720 pixels
 Height : 576 pixels
 Display aspect ratio : 4:3
 Frame rate : 25.000 fps
 Standard : PAL
 Color space : YUV
 Chroma subsampling : 4:2:0
 Bit depth : 8 bits
 Scan type : Interlaced
 Scan order : Top Field First
 Compression mode : Lossy
 Bits/(Pixel*Frame) : 0.279
 Stream size : 1.30 GiB (92%)

Audio
 ID : 192 (0xC0)
 Format : MPEG Audio
 Format version : Version 1
 Format profile : Layer 2
 Duration : 1h 4mn
 Bit rate mode : Constant
 Bit rate : 192 Kbps
 Channel(s) : 2 channels
 Sampling rate : 48.0 KHz
 Compression mode : Lossy
 Stream size : 88.4 MiB (6%)
Релиз: Cheef mate

picpicpic
Для увеличения картинки щелкните мышкой по превью

Этот торрент недоступен для скачивания без регистрации, однако доступен по публичной magnet-ссылке (источники с публичных трекеров). Перед использованием ссылки прочтите, пожалуйста Пользовательское соглашение, а также как можно дольше оставайтесь на раздаче! Для того, чтобы скачать сам торрент-файл (который видит больше источников), а также для того, чтобы поблагодарить релизера, вам необходимо зарегистрироваться. Если регистрироваться лень - вы можете также попробовать скачать релиз по нашим партнерским ссылкам ниже.

[underverse.su].t35123.torrent
Трекер: Зарегистрирован   [ 11.01.2014 07:03 ]  

Статус: проверено (by garry at 11.01.2014 07:03)
Поблагодарили: 1 человек
Тип торрента: публичный - доступные источники с открытых трекеров: 
Размер: 14,76 GB (занимает 3,37 DVDR, для записи нужно 4 болванки DVDR/RW)
 
 

gard33 Пол:Муж

18-Янв-2014 21:52

:Yahoo!:
:good:
:Bravo:

Яндекс.Метрика powered by Sphinx


В Н И М А Н И Е
Сайт не распространяет и не хранит электронные версии произведений, а лишь бесплатно и без коммерческой выгоды (не требуя взамен платы,
SMS и т.д.) предоставляет доступ к создаваемому пользователями каталогу ссылок на торрент-файлы, которые содержат только списки хеш-сумм.
Убедительная просьба с жалобами обращаться напрямую к пользователю, разместившему торрент файл.

Вверх