Loading...
Error

Пока станица спит (Казаки) (1-100 серии из 250) (Александр Мохов, Елена Цыплакова, Бата Недич) [2014 г., Мелодрама, SatRip]

Статистика раздачи
Размер:  49,33 GB   |    Зарегистрирован:  2 года 6 месяцев   |    Скачан:  0 раз

Полного источника не было: 2 года

Сидов:  0  |  0 KB/s  ]   Личеров:  0  |  0 KB/s  ]

* - сиды/пиры с внешних источников

   
 
Автор Сообщение

nemos Пол:Муж

09-Янв-2014 06:57

Пока станица спит


Год выпуска: 2014
Жанр: Мелодрама
Страна: Россия, Украина
Режиссер: Александр Мохов, Елена Цыплакова, Бата Недич
В ролях: Зоряна Марченко, Вячеслав Дробинков, Дарья Егорова, Екатерина Олькина, Александр Мохов, Галина Безрук, Анатолий Хостикоев, Дмитрий Назаров, Олеся Жураковская, Георгий Хостикоев, Артём Алексеев (II), Дмитрий Арбенин, Владимир Горянский, Станислав Боклан, Ева Авеева, Наталия Сумская, Дарья Питерова, Надежда Костюк, Елена Турбал, Анна Саливанчук, Сергей Деревянко, Александр Кобзарь, Костя Чернокрылюк, Ольга Бережная, Виталий Иванченко, Олесь Кацион, Юрий Яковлев-Суханов, Александр Попов (IV), Андрей Тартаков, Александр Гетьманский, Светлана Потанина
Сюжет фильма:
Это история о любви. О любви свободной, страстной и безудержной, не терпящей никаких ограничений, будь то сословное, имущественное или иное неравенство… Марыся – одна из главных героинь этой истории. Красивая молодая казачка выросла в атмосфере безумной любви отца – любой каприз, любая прихоть ее тут же беспрекословно выполняются. Судьба сводит ее с молодым дворянином Степаном, который приезжает в станицу со своей возлюбленной Аленой, чтобы девушку насильно не выдали замуж за богатого, но нелюбимого купца Петра Колеванова. Купец годится в отцы Алене, но ее родителей это не смущает – ведь столь удачная партия обеспечит будущее дочери, а они сами смогут поправить свое материальное положение за счет предприимчивого зятя. После того как дочь сбежала из дома, семья оказалась опозорена настолько, что удачно выйти замуж, а скорее всего, вообще выйти замуж, Алене бы уже не удалось. Но Колеванов решил не отступать от красавицы и взялся вернуть "будущую невесту" в отчий дом и насильно сделать своей женой. Степан и Алена, прячась от родительского гнева и собираясь тайно обручиться, снимают дом у одной из обитательниц станицы и называются братом и сестрой. На свое несчастье Степан спасает от верной гибели Марысю, которую понесла норовистая лошадь. Девушка с первого взгляда влюбляется в своего спасителя и готова во что бы то ни стало женить на себе видного парня. А получив от Степана недвусмысленный отказ, решает отомстить. Но это всего лишь начало истории...


Качество видео: SatRip

Продолжительность: 00:43:12 серия
Формат: AVI
Видео: XviD, 704x368, 1420 kbps
Аудио: русский, MP3 2.0, 192 kbps

Код:

E:\Фильмы (роздача)\Пока станица спит (2014)\Пока станица спит.001.avi
   General
      Complete name : E:\Фильмы (роздача)\Пока станица спит (2014)\Пока станица спит.001.avi
      Format : AVI
      Format/Info : Audio Video Interleave
      File size : 501 MiB
      Duration : 43mn 12s
      Overall bit rate : 1 621 Kbps
      Writing application : VirtualDubMod 1.5.10.3 | www.virtualdub-fr.org || (build 2550/release)
      Writing library : VirtualDubMod build 2550/release
   Video #0
      ID : 0
      Format : MPEG-4 Visual
      Format profile : Advanced Simple@L5
      Format settings, BVOP : 1
      Format settings, QPel : No
      Format settings, GMC : No warppoints
      Format settings, Matrix : Default (H.263)
      Codec ID : XVID
      Codec ID/Hint : XviD
      Duration : 43mn 12s
      Bit rate : 1 420 Kbps
      Width : 704 pixels
      Height : 368 pixels
      Display aspect ratio : 1.913
      Frame rate : 25.000 fps
      Color space : YUV
      Chroma subsampling : 4:2:0
      Bit depth : 8 bits
      Scan type : Progressive
      Compression mode : Lossy
      Bits/(Pixel*Frame) : 0.219
      Stream size : 439 MiB (88%)
      Writing library : XviD 1.2.1 (UTC 2008-12-04)
   Audio #1
      ID : 1
      Format : MPEG Audio
      Format version : Version 1
      Format profile : Layer 3
      Mode : Joint stereo
      Codec ID : 55
      Codec ID/Hint : MP3
      Duration : 43mn 12s
      Bit rate mode : Constant
      Bit rate : 192 Kbps
      Channel(s) : 2 channels
      Sampling rate : 48.0 KHz
      Compression mode : Lossy
      Stream size : 59.3 MiB (12%)
      Alignment : Aligned on interleaves
      Interleave, duration : 40 ms (1.00 video frame)
      Interleave, preload duration : 504 ms
      Writing library : LAME3.99r
      Encoding settings : -m j -V 4 -q 2 -lowpass 18.6 -b 192
Семпл: http://multi-up.com/938405

picpicpicpicpicpicpicpicpicpicpicpic
Для увеличения картинки щелкните мышкой по превью

Этот торрент недоступен для скачивания без регистрации, однако доступен по публичной magnet-ссылке (источники с публичных трекеров). Перед использованием ссылки прочтите, пожалуйста Пользовательское соглашение, а также как можно дольше оставайтесь на раздаче! Для того, чтобы скачать сам торрент-файл (который видит больше источников), а также для того, чтобы поблагодарить релизера, вам необходимо зарегистрироваться. Если регистрироваться лень - вы можете также попробовать скачать релиз по нашим партнерским ссылкам ниже.

[underverse.su].t40221.torrent
Трекер: Зарегистрирован   [ 16.05.2014 17:09 ]  

Статус: проверено (by nemos at 09.06.2014 11:57)
Поблагодарили: 7 человек
Тип торрента: публичный - доступные источники с открытых трекеров: 
Размер: 49,33 GB (занимает 11,27 DVDR, для записи нужно 12 болванок DVDR/RW)
 
 


Последний раз редактировалось: nemos (06.11.2014 05:11), всего редактировалось 67 раз(а)

nemos Пол:Муж

09-Янв-2014 19:37

Торрент обновлён. Добавлена серия: 4

garry Пол:Муж

10-Янв-2014 07:28

Цитата:

Серии: 1-4 (250)
ёханый бабай :crazy:

nemos Пол:Муж

10-Янв-2014 21:11

Внимание! Данная раздача обновлена до 100-ой серии. Обновитесь пожалуйста .

Яндекс.Метрика powered by Sphinx


В Н И М А Н И Е
Сайт не распространяет и не хранит электронные версии произведений, а лишь бесплатно и без коммерческой выгоды (не требуя взамен платы,
SMS и т.д.) предоставляет доступ к создаваемому пользователями каталогу ссылок на торрент-файлы, которые содержат только списки хеш-сумм.
Убедительная просьба с жалобами обращаться напрямую к пользователю, разместившему торрент файл.

Вверх