Loading...
Error

Антисоциалка / Antisocial (Коуди Кэлахан) [2013 г., Ужасы, HDRip] VO

Статистика раздачи
Размер:  740 MB   |    Зарегистрирован:  2 года 10 месяцев   |    Скачан:  18 раз

Полного источника не было: 1 год 9 месяцев

Сидов:  0  |  0 KB/s  ]   Личеров:  0  |  0 KB/s  ]

* - сиды/пиры с внешних источников

   
 
Автор Сообщение

Су-34 Пол:Муж

07-Янв-2014 16:32

Антисоциалка / Antisocial


Год выпуска: 2013
Жанр: Ужасы
Страна: Канада
Режиссер: Коуди Кэлахан
В ролях: Мишель Майлетт, Коуди Рэй Томпсон, Адам Кристи, Ана Алич, Ромэйн Вейт, Райан Баррет, Лорел Брандес, Бен Алексис, Чад Арчибальд, Стивен Бартелло
Сюжет фильма:
Пятеро друзей собираются вместе, чтобы отметить наступление Нового Года. Но вместо подарков от Деда Мороза их ждет неприятный сюрприз — за дверьми их дома разразилась эпидемия и неизвестный вирус сводит с ума людей. Что остается делать героям? Забаррикадировавшись, они держат оборону от нападок извне и медленно сходят с ума внутри…
Качество видео: HDRip

Продолжительность: 01:29:33
Формат: AVI
Видео: XviD, 640x336, 953 kbps
Аудио: русский, одноголосый закадровый [любительский], MP3, 2 ch, 192 kbps
Субтитры: отсутствуют

Код:

Полное имя : D:\Filmi\Antisocial.2013.HDRip.avi
 Формат : AVI
 Формат/Информация : Audio Video Interleave
 Размер файла : 740 Мбайт
 Продолжительность : 1 ч. 29 м.
 Общий поток : 1155 Кбит/сек
 Программа кодирования : VirtualDubMod 1.5.10.3 (build 2550/release)
 Библиотека кодирования : VirtualDubMod build 2550/release

Видео
 Идентификатор : 0
 Формат : MPEG-4 Visual
 Профиль формата : Advanced Simple@L5
 Параметр BVOP формата : 2
 Параметр QPel формата : Нет
 Параметр GMC формата : Без точки перехода
 Параметр матрицы формата : Default (H.263)
 Идентификатор кодека : XVID
 Идентификатор кодека/Подсказка : XviD
 Продолжительность : 1 ч. 29 м.
 Битрейт : 953 Кбит/сек
 Ширина : 640 пикселей
 Высота : 336 пикселей
 Соотношение сторон : 1,905
 Частота кадров : 23,976 кадра/сек
 Цветовое пространство : YUV
 Субдискретизация насыщенности : 4:2:0
 Битовая глубина : 8 бит
 Тип развёртки : Прогрессивная
 Бит/(Пиксели*Кадры) : 0.185
 Размер потока : 611 Мбайт (83%)
 Библиотека кодирования : XviD 1.2.1 (UTC 2008-12-04)

Аудио
 Идентификатор : 1
 Формат : MPEG Audio
 Версия формата : Version 1
 Профиль формата : Layer 3
 Идентификатор кодека : 55
 Идентификатор кодека/Подсказка : MP3
 Продолжительность : 1 ч. 29 м.
 Вид битрейта : Постоянный
 Битрейт : 192 Кбит/сек
 Каналы : 2 канала
 Частота : 44,1 КГц
 Задержка видео : 13 мс.
 Размер потока : 123 Мбайт (17%)
 Выравнивание : Разделение по промежуткам
 Продолжительность промежутка : 42 мс. (1,00 видеокадр)
 Время предзагрузки промежутка : 500 мс.

Семпл: http://multi-up.com/937792
picpicpicpicpic
Для увеличения картинки щелкните мышкой по превью

Этот торрент недоступен для скачивания без регистрации, однако доступен по публичной magnet-ссылке (источники с публичных трекеров). Перед использованием ссылки прочтите, пожалуйста Пользовательское соглашение, а также как можно дольше оставайтесь на раздаче! Для того, чтобы скачать сам торрент-файл (который видит больше источников), а также для того, чтобы поблагодарить релизера, вам необходимо зарегистрироваться. Если регистрироваться лень - вы можете также попробовать скачать релиз по нашим партнерским ссылкам ниже.

[underverse.su].t35033.torrent
Трекер: Зарегистрирован   [ 07.01.2014 16:32 ]  

Статус: проверено (by 90ytr90 at 08.01.2014 10:24)
Поблагодарили: пока никто не поблагодарил...
Тип торрента: публичный - доступные источники с открытых трекеров: 
Размер: 740 MB (занимает 0,16 DVDR, для записи нужно 1 болванка DVDR/RW)
 
 
Похожие темы
Форум Тема Автор Торрент Отв. Посл. сооб.
Зарубежное кино [DVDRip, Low-Res HDRip, и т.д.] Антисоциалка / Antisocial (Коуди Кэлахан) [2013 г., ужасы, BDRip-AVC] VO + Original Паукан
1 | 0

0 | 1235

15

11.02.2014 14:29

Зарубежное кино [DVDRip, Low-Res HDRip, и т.д.] Антисоциалка / Antisocial (Коуди Кэлахан) [2013 г., Ужасы, Фантастика, Триллер, HDRip] DVO (RUS, TheAngelOfDeath & SweetySacrifice) Ведьмочка
0 | 1

0 | 564

12

02.12.2014 05:40


Яндекс.Метрика powered by Sphinx


В Н И М А Н И Е
Сайт не распространяет и не хранит электронные версии произведений, а лишь бесплатно и без коммерческой выгоды (не требуя взамен платы,
SMS и т.д.) предоставляет доступ к создаваемому пользователями каталогу ссылок на торрент-файлы, которые содержат только списки хеш-сумм.
Убедительная просьба с жалобами обращаться напрямую к пользователю, разместившему торрент файл.

Вверх