Loading...
Error

Назначена награда [4 серии из 4] (Михаил Колпахчиев) [2013 г., комедия, криминальный, SatRip]

Статистика раздачи
Размер:  2,06 GB   |    Зарегистрирован:  2 года 11 месяцев   |    Скачан:  28 раз

Полного источника не было: 1 месяц 22 дня

Сидов:  0  |  0 KB/s  ]   Личеров:  0  |  0 KB/s  ]

* - сиды/пиры с внешних источников

   
 
Автор Сообщение

promanaliz Пол:Муж

05-Янв-2014 07:20

Назначена награда [4 серии из 4]


Год выпуска: 2013
Жанр: комедия, криминальный
Страна: Россия
Режиссер: Михаил Колпахчиев
В ролях: Наталья Дворецкая, Иван Бровин, Егор Бакулин, Валерий Кухарешин, Сергей Селин, Алексей Нилов, Евгений Сидихин, Сергей Воробьёв, Андрей Ургант, Денис Старков
Сюжет фильма:
Паша Гайтан и Олег Лялякин — рядовые сотрудниками ППС — мечтают стать настоящими «охотниками за головами» и самостоятельно бороться с преступниками, особенно за приличное вознаграждение. Наступает день, когда сама судьба вынуждает их заняться этим промыслом: горе-друзей с треском выгоняют из полиции… Невероятные и опасные приключения начинаются, когда герои, сами того не подозревая, становятся участниками секретной операции. Теперь они — и мишень для бандитской группировки, и объект разработки у бывших коллег-оперативников. Друзья попадают на передовую криминальных разборок, и это без особого труда может стоить им жизни.


Качество видео: SatRip

Продолжительность: 4 x ~ 00:44:43
Формат: AVI
Видео: DivX, 720х448, ~1500 kb/s kbps
Аудио: русский, MP3 2.0, 128 kbps

Код:

Общее
Полное имя : H:\nagrada\Naznachena.nagrada.01.SATRip.avi
Формат : AVI
Формат/Информация : Audio Video Interleave
Размер файла : 524 Мбайт
Продолжительность : 44 м.
Общий поток : 1638 Кбит/сек
Библиотека кодирования : VirtualDub build 32842/release

Видео
Идентификатор : 0
Формат : MPEG-4 Visual
Параметр BVOP формата : 1
Параметр QPel формата : Нет
Параметр GMC формата : Без точки перехода
Параметр матрицы формата : Default (H.263)
Режим смешивания : Сжатый битовый поток
Идентификатор кодека : DX50
Идентификатор кодека/Подсказка : DivX 5
Продолжительность : 44 м.
Битрейт : 1501 Кбит/сек
Ширина : 720 пикселей
Высота : 448 пикселей
Соотношение сторон : 16:10
Частота кадров : 25,000 кадров/сек
Цветовое пространство : YUV
Субдискретизация насыщенности : 4:2:0
Битовая глубина : 8 бит
Тип развёртки : Прогрессивная
Метод сжатия : С потерями
Бит/(Пиксели*Кадры) : 0.186
Размер потока : 480 Мбайт (92%)
Библиотека кодирования : DivX 6.8.5 (UTC 2009-08-20)

Аудио
Идентификатор : 1
Формат : MPEG Audio
Версия формата : Version 1
Профиль формата : Layer 3
Режим : Joint stereo
Идентификатор кодека : 55
Идентификатор кодека/Подсказка : MP3
Продолжительность : 44 м.
Вид битрейта : Постоянный
Битрейт : 128 Кбит/сек
Каналы : 2 канала
Частота : 48,0 КГц
Метод сжатия : С потерями
Размер потока : 41,0 Мбайт (8%)
Выравнивание : Разделение по промежуткам
Продолжительность промежутка : 40 мс. (1,00 видеокадр)
Время предзагрузки промежутка : 500 мс.
picpicpic
Для увеличения картинки щелкните мышкой по превью

Этот торрент недоступен для скачивания без регистрации, однако доступен по публичной magnet-ссылке (источники с публичных трекеров). Перед использованием ссылки прочтите, пожалуйста Пользовательское соглашение, а также как можно дольше оставайтесь на раздаче! Для того, чтобы скачать сам торрент-файл (который видит больше источников), а также для того, чтобы поблагодарить релизера, вам необходимо зарегистрироваться. Если регистрироваться лень - вы можете также попробовать скачать релиз по нашим партнерским ссылкам ниже.

[underverse.su].t34967.torrent
Трекер: Зарегистрирован   [ 05.01.2014 07:20 ]  

Статус: проверено (by 90ytr90 at 05.01.2014 20:44)
Поблагодарили: 5 человек
Тип торрента: публичный - доступные источники с открытых трекеров: 
Размер: 2,06 GB (занимает 0,47 DVDR, для записи нужно 1 болванка DVDR/RW)
 
 


Последний раз редактировалось: promanaliz (05.01.2014 17:55), всего редактировалось 1 раз

90ytr90 

05-Янв-2014 10:09

3 скриншот замените, пожалуйста, размер не соответствует заявленному 720х448.

P.S. Спасибо.

Яндекс.Метрика powered by Sphinx


В Н И М А Н И Е
Сайт не распространяет и не хранит электронные версии произведений, а лишь бесплатно и без коммерческой выгоды (не требуя взамен платы,
SMS и т.д.) предоставляет доступ к создаваемому пользователями каталогу ссылок на торрент-файлы, которые содержат только списки хеш-сумм.
Убедительная просьба с жалобами обращаться напрямую к пользователю, разместившему торрент файл.

Вверх