Loading...
Error

Риддик / Riddick (Дэвид Туи) [2013 г., фантастика, боевик, триллер, BDRip] Dub + Original + Sub (Eng) HQ Underverse

Статистика раздачи
Размер:  2,16 GB   |    Зарегистрирован:  2 года 11 месяцев   |    Скачан:  122 раза
Сидов:  1  |  0 KB/s  ]   Личеров:  0  |  0 KB/s  ]

* - сиды/пиры с внешних источников

   
 
Автор Сообщение

HQ Underverse 

27-Дек-2013 15:25

Риддик / Riddick


Год выпуска: 2013
Жанр: фантастика, боевик, триллер
Режиссер: Дэвид Туи
В ролях: Вин Дизель, Карл Урбан, Хорди Молья, Мэтью Нэйбл, Кэти Сакхофф, Дэйв Батиста, Букем Вудбайн, Рауль Трухильо, Конрад Пла, Дэнни Бланко
Сюжет фильма:
Преданный своими и брошенный умирать на пустынной планете, Риддик сражается с хищниками за жизнь и становится сильнее и опаснее себя прежнего. Открывшие на него охоту галактические наемники оказываются пешками в грандиозном плане отмщения. С врагами, возникающими на его пути тогда, когда это нужно самому Риддику, он начинает поход во имя мести, чтобы в конечном счете вернуться на родную Фурию и спасти ее от уничтожения.

  • Мировая премьера: 4 сентября 2013
  • Российская премьера: 2 сентября 2013, «Централ Партнершип»

|
Качество видео: BDRip

Продолжительность: 01:58:39
Формат: avi
Видео: XviD, 720x304, 2215 kbps
Аудио #1: русский, дублированный [цифровая лицензия iTunes], AC3 5.1, 384 kbps
Аудио #2: английский, оригинал, AC3 5.1, 384 kbps (отдельным файлом: здесь)
Субтитры: внешние, SRT, английский

Код:

General
Complete name                    : Z:\windoza-share\Риддик\Riddick.2013.BDRip.XviD.AC3.Rus.D.HQ.Underverse.avi
Format                           : AVI
Format/Info                      : Audio Video Interleave
Format profile                   : OpenDML
File size                        : 2.16 GiB
Duration                         : 1h 58mn
Overall bit rate                 : 2 611 Kbps
Writing application              : VirtualDubMod 1.5.10.2 (build 2540/release)
Writing library                  : VirtualDubMod build 2540/release

Video
ID                               : 0
Format                           : MPEG-4 Visual
Format profile                   : Streaming Video@L1
Format settings, BVOP            : Yes
Format settings, QPel            : No
Format settings, GMC             : No warppoints
Format settings, Matrix          : Custom
Muxing mode                      : Packed bitstream
Codec ID                         : XVID
Codec ID/Hint                    : XviD
Duration                         : 1h 58mn
Bit rate                         : 2 215 Kbps
Width                            : 720 pixels
Height                           : 304 pixels
Display aspect ratio             : 2.35
Frame rate                       : 23.976 fps
Resolution                       : 24 bits
Colorimetry                      : 4:2:0
Scan type                        : Progressive
Bits/(Pixel*Frame)               : 0.422
Stream size                      : 1.84 GiB (85%)
Writing library                  : XviD 64

Audio
ID                               : 1
Format                           : AC-3
Format/Info                      : Audio Coding 3
Codec ID                         : 2000
Duration                         : 1h 58mn
Bit rate mode                    : Constant
Bit rate                         : 384 Kbps
Channel(s)                       : 6 channels
Channel positions                : Front: L C R, Surround: L R, LFE
Sampling rate                    : 48.0 KHz
Stream size                      : 326 MiB (15%)
Alignment                        : Split accross interleaves
Interleave, duration             : 42 ms (1.00 video frame)
Interleave, preload duration     : 500 ms

General
Complete name                    : Z:\windoza-share\Риддик\Riddick.2013.BDRip.XviD.AC3.Rus.D.HQ.Underverse.ENG.ac3
Format                           : AC-3
Format/Info                      : Audio Coding 3
File size                        : 326 MiB
Duration                         : 1h 58mn
Overall bit rate                 : 384 Kbps

Audio
Format                           : AC-3
Format/Info                      : Audio Coding 3
Duration                         : 1h 58mn
Bit rate mode                    : Constant
Bit rate                         : 384 Kbps
Channel(s)                       : 6 channels
Channel positions                : Front: L C R, Surround: L R, LFE
Sampling rate                    : 48.0 KHz
Stream size                      : 326 MiB (100%)

Релиз группы:

picpicpic
Для увеличения картинки щелкните мышкой по превью

Этот торрент недоступен для скачивания без регистрации, однако доступен по публичной magnet-ссылке (источники с публичных трекеров). Перед использованием ссылки прочтите, пожалуйста Пользовательское соглашение, а также как можно дольше оставайтесь на раздаче! Для того, чтобы скачать сам торрент-файл (который видит больше источников), а также для того, чтобы поблагодарить релизера, вам необходимо зарегистрироваться. Если регистрироваться лень - вы можете также попробовать скачать релиз по нашим партнерским ссылкам ниже.

[underverse.su].t34610.torrent
Трекер: Зарегистрирован   [ 27.12.2013 15:25 ]  

Статус: проверено (by HQ Underverse at 27.12.2013 15:26)
Поблагодарили: 9 человек
Тип торрента: публичный - доступные источники с открытых трекеров: 
Размер: 2,16 GB (занимает 0,49 DVDR, для записи нужно 1 болванка DVDR/RW)
 
 
Похожие темы
Форум Тема Автор Торрент Отв. Посл. сооб.
T Зарубежное кино [DVDRip, Low-Res HDRip, и т.д.] Риддик / Riddick (Дэвид Туи) [2013 г., фантастика, боевик, триллер, DVDRip] Dub (чистый звук) + Spa 90ytr90
7 | 0

0 | 3119

221

03.12.2013 04:25

Зарубежное кино [DVDRip, Low-Res HDRip, и т.д.] Риддик / Riddick (Дэвид Туи) [2013 г., фантастика, боевик, триллер, BDRip] Dub (iTunes) + Original 90ytr90
12 | 0

0 | 2110

31

23.12.2013 20:44

Зарубежное кино [DVDRip, Low-Res HDRip, и т.д.] Риддик / Riddick (Дэвид Туи) [2013 г., фантастика, боевик, триллер, BDRip] Dub (iTunes) 90ytr90
3 | 0

0 | 417

28

23.12.2013 20:59

Зарубежное кино [DVDRip, Low-Res HDRip, и т.д.] Риддик / Riddick (Дэвид Туи) [2013 г., фантастика, боевик, триллер, BDRip-AVC] Dub (iTunes) + Original + Sub (Rus, Eng) 90ytr90
1 | 0

0 | 473

21

23.12.2013 21:23

Зарубежное кино [DVDRip, Low-Res HDRip, и т.д.] Риддик / Riddick (Дэвид Туи / David Twohy) [2013 г., фантастика, боевик, триллер, BDRip] [Extended Cut] Dub/VO 90ytr90
2 | 0

2 | 1870

64

09.03.2014 08:47

T Зарубежное кино [HDDVDRip / BDRip / WEB-DL / HDTV 1080/720р] Риддик / Riddick (Дэвид Туи) [2013 г., фантастика, боевик, триллер, WEB-DL 720p] Dub (iTunes) + Original 90ytr90
9 | 2

0 | 2162

76

17.12.2013 09:02

Зарубежное кино [HDDVDRip / BDRip / WEB-DL / HDTV 1080/720р] Риддик / Riddick (Дэвид Туи) [2013 г., фантастика, боевик, триллер, BDRip 1080p] Dub (iTunes) + Original + Sub (Rus, Eng) 90ytr90
2 | 1

0 | 558

41

23.12.2013 10:01

Зарубежное кино [HDDVDRip / BDRip / WEB-DL / HDTV 1080/720р] Риддик / Riddick (Дэвид Туи) [2013 г., фантастика, боевик, триллер, BDRip 720p] [Extended Cut] Dub/DVO + Original + Sub (Rus, Eng) 90ytr90
1 | 0

0 | 480

26

02.01.2014 11:27

Трейлеры HD DVD, Blu-Ray Риддик / Riddick (Дэвид Туи) [2013 г., фантастика, боевик, триллер, HD-720p] Dub Чертёнок
7 | 0

1 | 1561

13

29.09.2013 18:19


Яндекс.Метрика powered by Sphinx


В Н И М А Н И Е
Сайт не распространяет и не хранит электронные версии произведений, а лишь бесплатно и без коммерческой выгоды (не требуя взамен платы,
SMS и т.д.) предоставляет доступ к создаваемому пользователями каталогу ссылок на торрент-файлы, которые содержат только списки хеш-сумм.
Убедительная просьба с жалобами обращаться напрямую к пользователю, разместившему торрент файл.

Вверх