Loading...
Error

Команда Мечты / Les seigneurs (Оливье Даан / Olivier Dahan) [2012 г., комедия, спорт, BDRip-AVC] DVO

Статистика раздачи
Размер:  1,47 GB   |    Зарегистрирован:  2 года 11 месяцев   |    Скачан:  16 раз

Полного источника не было: 10 месяцев

Сидов:  0  |  0 KB/s  ]   Личеров:  0  |  0 KB/s  ]

* - сиды/пиры с внешних источников

   
 
Автор Сообщение

Паукан Пол:Муж

27-Дек-2013 09:24

Команда Мечты / Les seigneurs



Страна: Франция | Warner Bros, Canal+, TF1 Films Production
Жанр: Комедия, спорт
Год выпуска: 2012
Продолжительность: 01:36:56

Перевод: Любительский (двухголосый закадровый) [Jetvis Studio]
Cубтитры: Английские
Навигация по главам: Есть
Режиссер: Оливье Даан / Olivier Dahan
В ролях: Хосе Гарсия, Омар Си, Жан-Пьер Марьель, Франк Дюбоск, Гад Эльмалех, Джои Старр, Рамзи Бедиа, Жан Рено, Сами Амезьян, Клементин Баэрт, Фредерик Бель
Описание:
Патрик — в прошлом известный футболист и тренер, а сейчас просто пьяница. Единственная работа, которую он может получить — это тренер любительской футбольной команды на севере Франции. И отказаться нельзя, если у него не будет работы, он лишится права опеки над дочерью. Дела на футбольном поприще у почтальонов, рыбаков и бухгалтеров идут неважно. И тогда Патрику в голову приходит гениальная мысль — пригласить бывших футбольных звезд, уже повесивших бутсы на гвоздь, в команду. Вас ждут веселые приключения и незабываемые футбольные баталии!
Сэмпл
Качество видео: BDRip-AVC [BDRemux 1080p]
Формат видео: MKV

Видео: 1024x576, 23.976 fps, ~1975 kbps avg, 0.140 bit/pixel
Аудио: 48 kHz, AC3 Dolby Digital, 3/2 (L,C,R,l,r) + LFE ch, ~192 kbps (L DVO)
General
Unique ID : 228212302710908716747647438085176506421 (0xABB0173B2F827356A2EF89C82D4D3835)
Format : Matroska
Format version : Version 4 / Version 2
File size : 1.47 GiB
Duration : 1h 36mn
Overall bit rate : 2 168 Kbps
Movie name : Rip by Die_Roten
Encoded date : UTC 2013-12-25 22:13:31
Writing application : mkvmerge v6.6.0 ('The Edge Of The In Between') built on Dec 1 2013 17:55:00
Writing library : libebml v1.3.0 + libmatroska v1.4.1

Video
ID : 1
Format : AVC
Format/Info : Advanced Video Codec
Format profile : High@L4.1
Format settings, CABAC : Yes
Format settings, ReFrames : 10 frames
Codec ID : V_MPEG4/ISO/AVC
Duration : 1h 36mn
Bit rate : 1 975 Kbps
Width : 1 024 pixels
Height : 576 pixels
Display aspect ratio : 16:9
Frame rate mode : Constant
Frame rate : 23.976 fps
Color space : YUV
Chroma subsampling : 4:2:0
Bit depth : 8 bits
Scan type : Progressive
Bits/(Pixel*Frame) : 0.140
Stream size : 1.31 GiB (89%)
Writing library : x264 core 138 r2358 9e941d1
Encoding settings : cabac=1 / ref=10 / deblock=1:-3:-3 / analyse=0x3:0x113 / me=umh / subme=10 / psy=1 / psy_rd=1.00:0.10 / mixed_ref=1 / me_range=48 / chroma_me=1 / trellis=2 / 8x8dct=1 / cqm=0 / deadzone=21,11 / fast_pskip=0 / chroma_qp_offset=-3 / threads=6 / lookahead_threads=1 / sliced_threads=0 / nr=0 / decimate=1 / interlaced=0 / bluray_compat=0 / constrained_intra=0 / bframes=8 / b_pyramid=2 / b_adapt=2 / b_bias=0 / direct=3 / weightb=1 / open_gop=0 / weightp=2 / keyint=240 / keyint_min=22 / scenecut=40 / intra_refresh=0 / rc_lookahead=40 / rc=2pass / mbtree=0 / bitrate=1975 / ratetol=1.0 / qcomp=0.60 / qpmin=10 / qpmax=51 / qpstep=4 / cplxblur=20.0 / qblur=0.5 / vbv_maxrate=62500 / vbv_bufsize=78125 / nal_hrd=none / ip_ratio=1.40 / pb_ratio=1.30 / aq=1:1.00
Language : English
Default : Yes
Forced : No

Audio
ID : 2
Format : AC-3
Format/Info : Audio Coding 3
Mode extension : CM (complete main)
Format settings, Endianness : Big
Codec ID : A_AC3
Duration : 1h 36mn
Bit rate mode : Constant
Bit rate : 192 Kbps
Channel count : 2 channels
Channel positions : Front: L R
Sampling rate : 48.0 KHz
Bit depth : 16 bits
Compression mode : Lossy
Stream size : 133 MiB (9%)
Title : RUS | DVO
Language : Russian
Default : Yes
Forced : Yes

Text
ID : 3
Format : UTF-8
Codec ID : S_TEXT/UTF8
Codec ID/Info : UTF-8 Plain Text
Default : Yes
Forced : No

Menu
00:00:00.000 : en:00:00:00.000
00:07:34.037 : en:00:07:34.037
00:12:04.057 : en:00:12:04.057
00:19:11.776 : en:00:19:11.776
00:24:46.819 : en:00:24:46.819
00:31:05.697 : en:00:31:05.697
00:38:52.413 : en:00:38:52.413
00:43:30.399 : en:00:43:30.399
00:48:13.432 : en:00:48:13.432
00:55:23.612 : en:00:55:23.612
01:01:25.807 : en:01:01:25.807
01:07:13.404 : en:01:07:13.404
01:12:22.046 : en:01:12:22.046
01:17:10.960 : en:01:17:10.960
01:24:26.186 : en:01:24:26.186
01:30:11.364 : en:01:30:11.364
pic pic pic
Для увеличения картинки щелкните мышкой по превью

Этот торрент недоступен для скачивания без регистрации, однако доступен по публичной magnet-ссылке (источники с публичных трекеров). Перед использованием ссылки прочтите, пожалуйста Пользовательское соглашение, а также как можно дольше оставайтесь на раздаче! Для того, чтобы скачать сам торрент-файл (который видит больше источников), а также для того, чтобы поблагодарить релизера, вам необходимо зарегистрироваться. Если регистрироваться лень - вы можете также попробовать скачать релиз по нашим партнерским ссылкам ниже.

[underverse.su].t34603.torrent
Трекер: Зарегистрирован   [ 27.12.2013 09:24 ]  

Статус: проверено (by Паукан at 27.12.2013 09:24)
Поблагодарили: пока никто не поблагодарил...
Тип торрента: публичный - доступные источники с открытых трекеров: 
Размер: 1,47 GB (занимает 0,34 DVDR, для записи нужно 1 болванка DVDR/RW)
 
 
Похожие темы
Форум Тема Автор Торрент Отв. Посл. сооб.
Зарубежное кино [DVDRip, Low-Res HDRip, и т.д.] Команда Мечты / Les seigneurs (Оливье Даан / Olivier Dahan) [2012 г., комедия, спорт, BDRip] DVO (Jetvis Studio) + Original 90ytr90
243 | 7

0 | 975

12

14.11.2013 17:49

Зарубежное кино [DVDRip, Low-Res HDRip, и т.д.] Команда Мечты / Les seigneurs (Оливье Даан) [2012 г., комедия, спорт, HDRip] Dub Паукан
21 | 1

0 | 1144

14

07.02.2014 15:27

Зарубежное кино [HDDVDRip / BDRip / WEB-DL / HDTV 1080/720р] Команда Мечты / Les seigneurs (Оливье Даан / Olivier Dahan) [2012 г., комедия, спорт, BDRip 720p] Dub + Original (Fre) + Sub (Fre) 90ytr90
6 | 0

0 | 1186

4

08.02.2014 10:13


Яндекс.Метрика powered by Sphinx


В Н И М А Н И Е
Сайт не распространяет и не хранит электронные версии произведений, а лишь бесплатно и без коммерческой выгоды (не требуя взамен платы,
SMS и т.д.) предоставляет доступ к создаваемому пользователями каталогу ссылок на торрент-файлы, которые содержат только списки хеш-сумм.
Убедительная просьба с жалобами обращаться напрямую к пользователю, разместившему торрент файл.

Вверх