Loading...
Error

На Землю / Earthbound (Алан Бреннан / Alan Brennan) [2012 г., фантастика, фэнтези, мелодрама, комедия, WEB-DLRip] DVO

Статистика раздачи
Размер:  745 MB   |    Зарегистрирован:  2 года 11 месяцев   |    Скачан:  45 раз

Полного источника не было: 2 года

Сидов:  0  |  0 KB/s  ]   Личеров:  0  |  0 KB/s  ]

* - сиды/пиры с внешних источников

   
 
Автор Сообщение

Паукан Пол:Муж

25-Дек-2013 21:57

На Землю / Earthbound


Название: На Землю
Оригинальное название: Earthbound
Год выхода: 2012
Жанр: Фантастика, фэнтези, мелодрама, комедия
Режиссер: Алан Бреннан / Alan Brennan
В ролях: Рейф Сполл /Rafe Spall/, Дженн Мюррэй /Jenn Murray/, Стефен Хоган /Stephen Hogan/, Дэвид Моррисси /David Morrissey/, Рори Кинэн /Rory Keenan/, Ифа Даффин /Aoife Duffin/, Кэрри Краули /Carrie Crowley/, Джон Линн /John Lynn/

О фильме:
Перед смертью отец одинадцатилетнего Джо открывает ему тайну, что Джо является последним сыном с далёкой планеты Залаксон, и здесь, на Земле они скрываются от охотников за головами, посланными за ним захватчиками планеты. Миссия Джо: остаться живым, вернуться на Залаксон и стать продолжателем рода залаксонцев...

Страна: Ирландия
Продолжительность: 01:37:13
Перевод: Профессиональный двухголосый

Файл
Кодек: XviD
Качество: WEB-DLRip (Исх. WEB-DL 720p)
Видео: 624x352 (1.77:1), 23.976 fps, XviD build 50 ~934 kbps avg, 0.18 bit/pixel
Звук: 48 kHz, MPEG Layer 3, 2 ch, ~128.00 kbps avg
Субтитры: нет

Семпл
Общее
Полное имя : ФильмыНа Землю. 2012. WEB-DLRip.avi
Формат : AVI
Формат/Информация : Audio Video Interleave
Размер файла : 745 Мбайт
Продолжительность : 1 ч. 37 м.
Общий поток : 1071 Кбит/сек
Программа кодирования : VirtualDubMod 1.5.10.3 | www.virtualdub-fr.org || (build 2550/release)
Библиотека кодирования : VirtualDubMod build 2550/release

Видео
Идентификатор : 0
Формат : MPEG-4 Visual
Профиль формата : Advanced Simple@L5
Параметр BVOP формата : 2
Параметр QPel формата : Нет
Параметр GMC формата : Без точки перехода
Параметр матрицы формата : Выборочная
Идентификатор кодека : XVID
Идентификатор кодека/Подсказка : XviD
Продолжительность : 1 ч. 37 м.
Битрейт : 934 Кбит/сек
Ширина : 624 пикс.
Высота : 352 пикс.
Соотношение сторон : 16:9
Частота кадров : 23,976 кадр/сек
Цветовое пространство : YUV
Подвыборка цветности : 4:2:0
Битовая глубина : 8 бит
Тип развёртки : Прогрессивная
Метод сжатия : С потерями
Бит/(Пиксели*Кадры) : 0.177
Размер потока : 649 Мбайт (87%)
Библиотека кодирования : XviD 1.2.1 (UTC 2008-12-04)

Аудио
Идентификатор : 1
Формат : MPEG Audio
Версия формата : Version 1
Профиль формата : Layer 3
Идентификатор кодека : 55
Идентификатор кодека/Подсказка : MP3
Продолжительность : 1 ч. 37 м.
Вид битрейта : Постоянный
Битрейт : 128 Кбит/сек
Каналы : 2 канала
Частота : 48,0 КГц
Метод сжатия : С потерями
Размер потока : 89,0 Мбайт (12%)
Выравнивание : Соединение по промежуткам
Продолжительность промежутка : 42 мс. (1,00 видеокадр)
Время предзагрузки промежутка : 504 ms
Библиотека кодирования : LAME3.99r
Настройки программы : -m s -V 4 -q 2 -lowpass 17 -b 128
pic pic pic
Для увеличения картинки щелкните мышкой по превью

Этот торрент недоступен для скачивания без регистрации, однако доступен по публичной magnet-ссылке (источники с публичных трекеров). Перед использованием ссылки прочтите, пожалуйста Пользовательское соглашение, а также как можно дольше оставайтесь на раздаче! Для того, чтобы скачать сам торрент-файл (который видит больше источников), а также для того, чтобы поблагодарить релизера, вам необходимо зарегистрироваться. Если регистрироваться лень - вы можете также попробовать скачать релиз по нашим партнерским ссылкам ниже.

[underverse.su].t34565.torrent
Трекер: Зарегистрирован   [ 25.12.2013 21:57 ]  

Статус: проверено (by Паукан at 25.12.2013 21:57)
Поблагодарили: 1 человек
Тип торрента: публичный - доступные источники с открытых трекеров: 
Размер: 745 MB (занимает 0,17 DVDR, для записи нужно 1 болванка DVDR/RW)
 
 
Похожие темы
Форум Тема Автор Торрент Отв. Посл. сооб.
Зарубежное кино [DVDRip, Low-Res HDRip, и т.д.] На Землю / Earthbound (Алан Бреннан) [2012 г., фантастика, фэнтези, мелодрама, комедия, WEB-DLRip] DVO + Original 90ytr90
4 | 1

0 | 1824

15

22.12.2013 13:47


Яндекс.Метрика powered by Sphinx


В Н И М А Н И Е
Сайт не распространяет и не хранит электронные версии произведений, а лишь бесплатно и без коммерческой выгоды (не требуя взамен платы,
SMS и т.д.) предоставляет доступ к создаваемому пользователями каталогу ссылок на торрент-файлы, которые содержат только списки хеш-сумм.
Убедительная просьба с жалобами обращаться напрямую к пользователю, разместившему торрент файл.

Вверх