Loading...
Error

Ключи от прошлого / Серии: 1-8 из 8 ( Владимир Дмитриевский) [2013 г., мелодрама, драма, SatRip]

Статистика раздачи
Размер:  4,07 GB   |    Зарегистрирован:  2 года 11 месяцев   |    Скачан:  9 раз

Полного источника не было: 2 года

Сидов:  0  |  0 KB/s  ]   Личеров:  0  |  0 KB/s  ]

* - сиды/пиры с внешних источников

   
 
Автор Сообщение

konopic Пол:Муж

24-Дек-2013 13:06

Ключи от прошлого


Год выпуска: 2013
Жанр: мелодрама, драма
Страна: Россия
Режиссер: Владимир Дмитриевский
В ролях: Алексей Анищенко, Евгения Осипова, Станислав Боклан, Ольга Хохлова, Ирина Бякова, Егор Тимцуник, Евгений Кушпель, Наталья Третьякова, Николай Скурт, Ольга Стрелецкая, Николай Разуменко
Сюжет фильма:
25-летняя провинциалка Алиса привлекает внимание солидного бизнесмена Куликова. Мужчина очаровывает Алису и вскоре, чувствуя себя совершенно счастливой, она выходит за него замуж. Однако семейная жизнь быстро превращается в кошмар. В прошлом Куликова скрывается еще больше тайн, чем в его настоящем, и теперь жизнь Алисы оказывается под угрозой. Девушке предстоит пройти долгий путь, чтобы подобрать ключи к этим тайнам и обрести свою истинную любовь.
Качество видео: SatRip

Продолжительность: 8 х ~ 00:44:00
Формат: AVI
Видео: 720x384, 25 fps, XviD, ~1444 kbps, 0.211 bit/pixel
Аудио: 48 kHz, MPEG Layer 3, 2 ch, 192 kbps

Код:

Полное имя : R:\Сериалы\Ключи от прошлого (2013)\Ключи от прошлого.(01.seriya).2013.XviD.SATRip.by.simka.avi
Формат : AVI
Формат/Информация : Audio Video Interleave
Размер файла : 490 Мбайт
Продолжительность : 41 м.
Общий поток : 1642 Кбит/сек
Программа кодирования : VirtualDubModRus 1.5.10.2 (build 2542/release)
Библиотека кодирования : VirtualDubMod build 2542/release
Видео
Идентификатор : 0
Формат : MPEG-4 Visual
Профиль формата : Advanced Simple@L5
Параметр BVOP формата : 1
Параметр QPel формата : Нет
Параметр GMC формата : Без точки перехода
Параметр матрицы формата : Default (H.263)
Идентификатор кодека : XVID
Идентификатор кодека/Подсказка : XviD
Продолжительность : 41 м.
Битрейт : 1440 Кбит/сек
Ширина : 720 пикселей
Высота : 384 пикселя
Соотношение сторон : 1,85:1
Частота кадров : 25,000 кадров/сек
Цветовое пространство : YUV
Субдискретизация насыщенности : 4:2:0
Битовая глубина : 8 бит
Тип развёртки : Прогрессивная
Метод сжатия : С потерями
Бит/(Пиксели*Кадры) : 0.208
Размер потока : 430 Мбайт (88%)
Библиотека кодирования : XviD 1.2.1 (UTC 2008-12-04)
Аудио
Идентификатор : 1
Формат : MPEG Audio
Версия формата : Version 1
Профиль формата : Layer 3
Режим : Joint stereo
Расширение режима : MS Stereo
Идентификатор кодека : 55
Идентификатор кодека/Подсказка : MP3
Продолжительность : 41 м.
Вид битрейта : Постоянный
Битрейт : 192 Кбит/сек
Каналы : 2 канала
Частота : 48,0 КГц
Метод сжатия : С потерями
Размер потока : 57,3 Мбайт (12%)
Выравнивание : Соединение по промежуткам
Продолжительность промежутка : 40 мс. (1,00 видеокадр)
Время предзагрузки промежутка : 504 мс.
Библиотека кодирования : LAME3.99r
Настройки программы : -m j -V 4 -q 2 -lowpass 18.6 -b 192
Семпл: http://multi-up.com/935092

picpicpicpicpic
Для увеличения картинки щелкните мышкой по превью

Этот торрент недоступен для скачивания без регистрации, однако доступен по публичной magnet-ссылке (источники с публичных трекеров). Перед использованием ссылки прочтите, пожалуйста Пользовательское соглашение, а также как можно дольше оставайтесь на раздаче! Для того, чтобы скачать сам торрент-файл (который видит больше источников), а также для того, чтобы поблагодарить релизера, вам необходимо зарегистрироваться. Если регистрироваться лень - вы можете также попробовать скачать релиз по нашим партнерским ссылкам ниже.

[underverse.su].t34593.torrent
Трекер: Зарегистрирован   [ 27.12.2013 04:33 ]  

Статус: проверено (by 90ytr90 at 29.12.2013 10:16)
Поблагодарили: 1 человек
Тип торрента: публичный - доступные источники с открытых трекеров: 
Размер: 4,07 GB (занимает 0,93 DVDR, для записи нужно 1 болванка DVDR/RW)
 
 


Последний раз редактировалось: konopic (27.12.2013 04:33), всего редактировалось 1 раз

konopic Пол:Муж

25-Дек-2013 20:38

добавил 5-6 серии

konopic Пол:Муж

27-Дек-2013 04:33

Добавил 7-8 серии

Яндекс.Метрика powered by Sphinx


В Н И М А Н И Е
Сайт не распространяет и не хранит электронные версии произведений, а лишь бесплатно и без коммерческой выгоды (не требуя взамен платы,
SMS и т.д.) предоставляет доступ к создаваемому пользователями каталогу ссылок на торрент-файлы, которые содержат только списки хеш-сумм.
Убедительная просьба с жалобами обращаться напрямую к пользователю, разместившему торрент файл.

Вверх