Loading...
Error

Тайны следствия - 13 / Серии: 1-20 (20) (Рената Грицкова) [2013 г., криминал, детектив, HDTVRip]

Статистика раздачи
Размер:  10,74 GB   |    Зарегистрирован:  2 года 11 месяцев   |    Скачан:  13 раз

Полного источника не было: 15 дней

Сидов:  0  |  0 KB/s  ]   Личеров:  0  |  0 KB/s  ]

* - сиды/пиры с внешних источников

   
 
Автор Сообщение

nemos Пол:Муж

23-Дек-2013 12:11

Тайны следствия - 13


Год выпуска: 2013
Жанр: криминал, детектив
Страна: Россия
Режиссер: Рената Грицкова
В ролях: Анна Ковальчук, Вячеслав Захаров, Игорь Николаев (II), Александр Новиков (III), Игорь Григорьев (IV), Мирослав Малич, Злата Ильченко, Юлия Яковлева, Андрей Шарков, Олег Алмазов, Дмитрий Поднозов, Ольга Павловец
Сюжет фильма:
Под руководством Ковина Швецова, наконец, получает ту степень необходимой свободы, о которой так долго мечтала, пока начальственное кресло занимал её давний недоброжелатель Филонов. Оценив преимущества нового положения, Маша примиряется с тем, что её собственные достоинства как руководителя опять не были оценены "наверху", и с головой окунается в дела, поток которых не иссякает ни на минуту. Убийства и прочие преступления, оказавшиеся в поле её зрения, полностью поглощают внимание Швецовой, но даже за пределами стен рабочего кабинета ей теперь не найти былого покоя: Луганский отправляется в длительную командировку, а значит, Маша вновь не будет находить себе места от волнения за любимого супруга...


Качество видео: HDTVRip

Продолжительность: 00:43:00 серия
Формат: AVI
Видео: 704х400, 1 546 kbps
Аудио: русский, AC3 2.0, 192kbps

Код:

E:\Фильмы (роздача)\Tayny.sledstviya-13.2013.XviD.HDTVRip.Files-x\Tayny.sledstviya-13.20.seriya.2013..XviD.HDTVRip.Files-x.avi
   General
      Complete name : E:\Фильмы (роздача)\Tayny.sledstviya-13.2013.XviD.HDTVRip.Files-x\Tayny.sledstviya-13.20.seriya.2013..XviD.HDTVRip.Files-x.avi
      Format : AVI
      Format/Info : Audio Video Interleave
      File size : 550 MiB
      Duration : 43mn 57s
      Overall bit rate : 1 748 Kbps
      Writing application : VirtualDubMod 1.5.10.3 | www.virtualdub-fr.org || (build 2550/release)
      Writing library : VirtualDubMod build 2550/release
   Video #0
      ID : 0
      Format : MPEG-4 Visual
      Format profile : Advanced Simple@L5
      Format settings, BVOP : 1
      Format settings, QPel : No
      Format settings, GMC : No warppoints
      Format settings, Matrix : Default (H.263)
      Codec ID : XVID
      Codec ID/Hint : XviD
      Duration : 43mn 57s
      Bit rate : 1 546 Kbps
      Width : 720 pixels
      Height : 400 pixels
      Display aspect ratio : 16:9
      Frame rate : 25.000 fps
      Color space : YUV
      Chroma subsampling : 4:2:0
      Bit depth : 8 bits
      Scan type : Progressive
      Compression mode : Lossy
      Bits/(Pixel*Frame) : 0.215
      Stream size : 486 MiB (88%)
      Writing library : XviD 1.2.1 (UTC 2008-12-04)
   Audio #1
      ID : 1
      Format : AC-3
      Format/Info : Audio Coding 3
      Mode extension : CM (complete main)
      Format settings, Endianness : Big
      Codec ID : 2000
      Duration : 43mn 57s
      Bit rate mode : Constant
      Bit rate : 192 Kbps
      Channel(s) : 2 channels
      Channel positions : Front: L R
      Sampling rate : 48.0 KHz
      Bit depth : 16 bits
      Compression mode : Lossy
      Stream size : 60.4 MiB (11%)
      Alignment : Split accross interleaves
      Interleave, duration : 40 ms (1.00 video frame)
      Interleave, preload duration : 500 ms
Семпл: http://multi-up.com/934979

picpicpicpicpicpicpic
Для увеличения картинки щелкните мышкой по превью

Этот торрент недоступен для скачивания без регистрации, однако доступен по публичной magnet-ссылке (источники с публичных трекеров). Перед использованием ссылки прочтите, пожалуйста Пользовательское соглашение, а также как можно дольше оставайтесь на раздаче! Для того, чтобы скачать сам торрент-файл (который видит больше источников), а также для того, чтобы поблагодарить релизера, вам необходимо зарегистрироваться. Если регистрироваться лень - вы можете также попробовать скачать релиз по нашим партнерским ссылкам ниже.

[underverse.su].t34792.torrent
Трекер: Зарегистрирован   [ 01.01.2014 17:10 ]  

Статус: проверено (by garry at 02.01.2014 16:41)
Поблагодарили: 1 человек
Тип торрента: публичный - доступные источники с открытых трекеров: 
Размер: 10,74 GB (занимает 2,45 DVDR, для записи нужно 3 болванки DVDR/RW)
 
 
Похожие темы
Форум Тема Автор Торрент Отв. Посл. сооб.
xUSSR сериалы Тайны следствия - 12 / Серии: 12 (12) (Рената Грицкова) [2013, Детектив, драма, криминал, SATRip] nemos
0 | 0

4 | 1665

18

28.08.2013 08:31



Последний раз редактировалось: nemos (06.11.2014 09:36), всего редактировалось 3 раз(а)

nemos Пол:Муж

24-Дек-2013 01:50

Торрент обновлён! Добавлены серии:15-20

Яндекс.Метрика powered by Sphinx


В Н И М А Н И Е
Сайт не распространяет и не хранит электронные версии произведений, а лишь бесплатно и без коммерческой выгоды (не требуя взамен платы,
SMS и т.д.) предоставляет доступ к создаваемому пользователями каталогу ссылок на торрент-файлы, которые содержат только списки хеш-сумм.
Убедительная просьба с жалобами обращаться напрямую к пользователю, разместившему торрент файл.

Вверх