Loading...
Error

Приключения Шерлока Холмса и доктора Ватсона: Собака Баскервилей (Игорь Масленников) [1981 г., криминал, детектив, BDRip] HQ Underverse

Статистика раздачи
Размер:  2,9 GB   |    Зарегистрирован:  2 года 11 месяцев   |    Скачан:  10 раз

Полного источника не было: 4 дня

Сидов:  0  |  0 KB/s  ]   Личеров:  0  |  0 KB/s  ]

* - сиды/пиры с внешних источников

   
 
Автор Сообщение

HQ Underverse 

20-Дек-2013 21:56

Приключения Шерлока Холмса и доктора Ватсона: Собака Баскервилей


Год выпуска: 1981
Жанр: криминал, детектив
Страна: СССР
Режиссер: Игорь Масленников
В ролях: Василий Ливанов, Виталий Соломин, Рина Зеленая, Ирина Купченко, Никита Михалков, Алла Демидова, Светлана Крючкова, Александр Адабашьян, Борислав Брондуков, Евгений Стеблов
Сюжет фильма:
Труп Чарльза Баскервиля обнаруживают неподалеку от его родового поместья. Выражение нечеловеческого ужаса на лице покойника и следы крупной собаки поблизости заставляют вспомнить старинную легенду о проклятии, тяготеющем над родом Баскервилей. Шерлоку Холмсу предстоит докопаться до истины...

  • Мировая премьера: 25 июля 1981


Качество видео: BDRip

Продолжительность: 01:16:54 + 01:15:28
Формат: avi
Видео: XviD, 720x518, 2244 / 2296 kbps
Аудио: русский, оригинал, AC3 5.1, 448 kbps

Код:

General
Complete name                    : D:\Video\Movies\Releases\Sobaka.Baskerviley.p1.1981.BDRip.XviD.AC3.Rus.O.HQ.Underverse.avi
Format                           : AVI
Format/Info                      : Audio Video Interleave
File size                        : 1.45 GiB
Duration                         : 1h 16mn
Overall bit rate                 : 2 702 Kbps
Writing application              : VirtualDubMod 1.5.10.2 (build 2540/release)
Writing library                  : VirtualDubMod build 2540/release

Video
ID                               : 0
Format                           : MPEG-4 Visual
Format profile                   : Streaming Video@L1
Format settings, BVOP            : Yes
Format settings, QPel            : No
Format settings, GMC             : No warppoints
Format settings, Matrix          : Custom
Muxing mode                      : Packed bitstream
Codec ID                         : XVID
Codec ID/Hint                    : XviD
Duration                         : 1h 16mn
Bit rate                         : 2 244 Kbps
Width                            : 720 pixels
Height                           : 518 pixels
Display aspect ratio             : 1.390
Frame rate                       : 23.976 fps
Resolution                       : 24 bits
Colorimetry                      : 4:2:0
Scan type                        : Progressive
Bits/(Pixel*Frame)               : 0.251
Stream size                      : 1.21 GiB (83%)
Writing library                  : XviD 64

Audio
ID                               : 1
Format                           : AC-3
Format/Info                      : Audio Coding 3
Codec ID                         : 2000
Duration                         : 1h 16mn
Bit rate mode                    : Constant
Bit rate                         : 448 Kbps
Channel(s)                       : 6 channels
Channel positions                : Front: L C R, Surround: L R, LFE
Sampling rate                    : 48.0 KHz
Video delay                      : 13ms
Stream size                      : 246 MiB (17%)
Alignment                        : Split accross interleaves
Interleave, duration             : 42 ms (1.00 video frame)
Interleave, preload duration     : 500 ms
Title                            : Sobaka.Baskerviley.p1.1981.Rus.O.AC3.5.1.448.kbps.HQ.Underverse

Семпл: http://multi-up.com/934241

Релиз группы:

picpicpic
Для увеличения картинки щелкните мышкой по превью

Этот торрент недоступен для скачивания без регистрации, однако доступен по публичной magnet-ссылке (источники с публичных трекеров). Перед использованием ссылки прочтите, пожалуйста Пользовательское соглашение, а также как можно дольше оставайтесь на раздаче! Для того, чтобы скачать сам торрент-файл (который видит больше источников), а также для того, чтобы поблагодарить релизера, вам необходимо зарегистрироваться. Если регистрироваться лень - вы можете также попробовать скачать релиз по нашим партнерским ссылкам ниже.

[underverse.su].t34408.torrent
Трекер: Зарегистрирован   [ 20.12.2013 21:56 ]  

Статус: проверено (by garry at 22.12.2013 11:54)
Поблагодарили: 2 человека
Тип торрента: публичный - доступные источники с открытых трекеров: 
Размер: 2,9 GB (занимает 2/3 DVDR, для записи нужно 1 болванка DVDR/RW)
 
 
Похожие темы
Форум Тема Автор Торрент Отв. Посл. сооб.
Зарубежное кино [DVDRip, Low-Res HDRip, и т.д.] Приключения Гекльберри Финна / Die Abenteuer des Huck Finn (Гермина Хунтгебурт) [2013 г., Приключения, BDRip-AVC] Dub Чертёнок
1 | 0

1 | 1261

37

08.06.2013 18:37

Зарубежное кино [DVDRip, Low-Res HDRip, и т.д.] Приключения Гекльберри Финна / Die Abenteuer des Huck Finn ( Гермина Хунтгебурт) [2012 г., Приключения, семейный, DVDRip] Dub Gaarochi
0 | 0

0 | 1548

23

08.06.2013 07:16

Зарубежное кино [DVDRip, Low-Res HDRip, и т.д.] Приключения Гекльберри Финна / Die Abenteuer des Huck Finn (Гермина Хунтгебурт / Hermine Huntgeburth) [2012 г., приключения, семейный, BDRip] Dub + Original 90ytr90
3 | 0

0 | 984

16

26.08.2013 15:09

T Зарубежное кино [DVDRip, Low-Res HDRip, и т.д.] Приключение двух нянь / Adventures in Babysitting (Джон Шульц / John Schultz) [2016 г., комедия, WEB-DLRip] Dub (чистый звук) 90ytr90
1238 | 24

0 | 285

8

03.11.2016 22:02

? Зарубежное кино [DVDRip, Low-Res HDRip, и т.д.] Приключения Затойчи / Adventures Of Zatoichi / Zatoichi sekisho yaburi (Кимиёши Ясуда) [1964 г., боевик, приключения, драма, HDRip] Dryn9
0 | 0

1 | 832

2

14.04.2014 17:06

Зарубежное кино [DVDRip, Low-Res HDRip, и т.д.] Приключение двух нянь / Adventures in Babysitting (Джон Шульц / John Schultz) [2016 г., комедия, WEB-DLRip-AVC] MVO (АНАНАС) + Original (Eng) + Sub (Rus, Eng) 90ytr90
178 | 4

0 | 484

7

26.10.2016 19:00

T Зарубежное кино [DVDRip, Low-Res HDRip, и т.д.] Приключение двух нянь / Adventures in Babysitting (Джон Шульц / John Schultz) [2016 г., комедия, WEB-DLRip] Dub (чистый звук) 90ytr90
0 | 0

0 | 482

7

26.10.2016 18:41

T Зарубежное кино [DVDRip, Low-Res HDRip, и т.д.] Приключения Паддингтона / Paddington (Пол Кинг) [2014 г., комедия, семейный, HDTVRip] Dub (чистый звук) 90ytr90
23 | 0

2 | 1100

147

08.03.2015 06:53

T Зарубежное кино [DVDRip, Low-Res HDRip, и т.д.] Приключения Паддингтона / Paddington (Пол Кинг) [2014 г., комедия, семейный, HDTVRip] Dub (чистый звук) 90ytr90
0 | 0

0 | 726

15

18.02.2015 06:11

Зарубежное кино [DVDRip, Low-Res HDRip, и т.д.] Приключения викингов / Viking Quest (Тодор Чапканов / Todor Chapkanov) [2014 г., фэнтези, боевик, HDRip] MVO (SDI) 90ytr90
1 | 0

0 | 1556

70

19.03.2015 11:52

maximus_lt Пол:Муж

20-Янв-2014 20:49

Остальные серии будут ?

90ytr90 

21-Янв-2014 05:53

maximus_lt

:right: Приключения Шерлока Холмса

Яндекс.Метрика powered by Sphinx


В Н И М А Н И Е
Сайт не распространяет и не хранит электронные версии произведений, а лишь бесплатно и без коммерческой выгоды (не требуя взамен платы,
SMS и т.д.) предоставляет доступ к создаваемому пользователями каталогу ссылок на торрент-файлы, которые содержат только списки хеш-сумм.
Убедительная просьба с жалобами обращаться напрямую к пользователю, разместившему торрент файл.

Вверх