Loading...
Error

Южный Парк / South Park / Сезон: 17 / Серии: 1-10 из 10 (Трей Паркер, Эрик Сточ, Мэтт Стоун) [2013, мультфильм, комедия, WEB-DLRip] DVO (Кубик в Кубе) + Original

Статистика раздачи
Размер:  2,17 GB   |    Зарегистрирован:  2 года 11 месяцев   |    Скачан:  17 раз

Полного источника не было: 17 дней

Сидов:  0  |  0 KB/s  ]   Личеров:  0  |  0 KB/s  ]

* - сиды/пиры с внешних источников

   
 
Автор Сообщение

Jimmy Пол:Муж

19-Дек-2013 17:28


Южный Парк / South Park

Год выпуска: 2013
Страна: США
Жанр: мультфильм, комедия
Продолжительность: 00:22:00
Перевод: Профессиональный (двухголосый закадровый) (Кубик в Кубе)
Режиссёр: Трей Паркер, Эрик Сточ, Мэтт Стоун
Роли озвучивали:
Трей Паркер, Мэтт Стоун, Мона Маршалл, Айзек Хейз, Эйприл Стюарт, Элиза Шнайдер, Мэри Кэй Бергман, Эдриан Бирд, Дженнифер Хауэлл, Кайл Маккаллок и др.
Описание:
Cтранноватые истории из жизни нескольких третьеклашек из маленького городка Саус Парк в штате Колорадо. Это комедия с элементами гротеска, фарса, пародии, обильно сдобренная музыкой и той самой плохо определяемой словами чертовщиной…
Качество: WEB-DLRip
Формат: AVI
Видео кодек: XviD
Аудио кодек: MP3
Видео: 720x400 (16:9), 23.976 fps, ~850 kbps, ~0.120 bit/pixel
Аудио Rus: 48 kHz, 2 ch, ~224 kbps [Кубик в Кубе]
Аудио Eng: 48 kHz, 2 ch, ~224 kbps [Original]
Релиз: &
Рип: xironfs
Сэмпл
General
Complete name : D:\Downloads\South Park Season 17 CasStudio\South.Park.s017e01.rus.eng.CasStudio.avi
Format : AVI
Format/Info : Audio Video Interleave
File size : 206 MiB
Duration : 22mn 10s
Overall bit rate : 1 302 Kbps
Writing application : VirtualDubModRus 1.5.10.2 (build 2542/release)
Writing library : VirtualDubMod build 2542/release

Video
ID : 0
Format : MPEG-4 Visual
Format profile : Advanced Simple@L5
Format settings, BVOP : 2
Format settings, QPel : No
Format settings, GMC : No warppoints
Format settings, Matrix : Default (MPEG)
Codec ID : XVID
Codec ID/Hint : XviD
Duration : 22mn 9s
Bit rate : 840 Kbps
Width : 720 pixels
Height : 400 pixels
Display aspect ratio : 16:9
Frame rate : 23.976 fps
Color space : YUV
Chroma subsampling : 4:2:0
Bit depth : 8 bits
Scan type : Progressive
Compression mode : Lossy
Bits/(Pixel*Frame) : 0.122
Stream size : 133 MiB (65%)
Writing library : XviD 65

Audio #1
ID : 1
Format : MPEG Audio
Format version : Version 1
Format profile : Layer 3
Codec ID : 55
Codec ID/Hint : MP3
Duration : 22mn 10s
Bit rate mode : Constant
Bit rate : 224 Kbps
Channel(s) : 2 channels
Sampling rate : 48.0 KHz
Compression mode : Lossy
Stream size : 35.5 MiB (17%)
Alignment : Aligned on interleaves
Interleave, duration : 42 ms (1.00 video frame)
Interleave, preload duration : 504 ms

Audio #2
ID : 2
Format : MPEG Audio
Format version : Version 1
Format profile : Layer 3
Codec ID : 55
Codec ID/Hint : MP3
Duration : 22mn 10s
Bit rate mode : Constant
Bit rate : 224 Kbps
Channel(s) : 2 channels
Sampling rate : 48.0 KHz
Compression mode : Lossy
Stream size : 35.5 MiB (17%)
Alignment : Aligned on interleaves
Interleave, duration : 42 ms (1.00 video frame)
Interleave, preload duration : 504 ms
Writing library : LAME3.99r
Encoding settings : -m s -V 4 -q 0 -lowpass 19.4 -b 224
pic pic pic

Этот торрент недоступен для скачивания без регистрации, однако доступен по публичной magnet-ссылке (источники с публичных трекеров). Перед использованием ссылки прочтите, пожалуйста Пользовательское соглашение, а также как можно дольше оставайтесь на раздаче! Для того, чтобы скачать сам торрент-файл (который видит больше источников), а также для того, чтобы поблагодарить релизера, вам необходимо зарегистрироваться. Если регистрироваться лень - вы можете также попробовать скачать релиз по нашим партнерским ссылкам ниже.

[underverse.su].t34381.torrent
Трекер: Зарегистрирован   [ 19.12.2013 17:29 ]  

Статус: проверено (by Jimmy at 21.12.2013 08:20)
Поблагодарили: 1 человек
Тип торрента: публичный - доступные источники с открытых трекеров: 
Размер: 2,17 GB (занимает 1/2 DVDR, для записи нужно 1 болванка DVDR/RW)
 
 
Похожие темы
Форум Тема Автор Торрент Отв. Посл. сооб.
Мультсериалы Южный Парк / South Park / С 1 по 10 сезон / (MTV) [1997-2007 г., Комедия, DVDRip] Jimmy
26 | 17

0 | 2883

7

19.12.2013 17:23

Архив Южный парк (14 сезон, 1-2 серии) / South Park (season 14 e.1-2) (Трей Паркер, Мэтт Стоун ) [2010 г., Комедия, сатира, мультсериал , HDTVRip] GanibalKing
0 | 0

1 | 1227

0

12.11.2010 23:48


Яндекс.Метрика powered by Sphinx


В Н И М А Н И Е
Сайт не распространяет и не хранит электронные версии произведений, а лишь бесплатно и без коммерческой выгоды (не требуя взамен платы,
SMS и т.д.) предоставляет доступ к создаваемому пользователями каталогу ссылок на торрент-файлы, которые содержат только списки хеш-сумм.
Убедительная просьба с жалобами обращаться напрямую к пользователю, разместившему торрент файл.

Вверх