Loading...
Error

(Pop) Дискотека Авария - Grand Collection (2009) [APE (Image+.Cue), Lossless]

Статистика раздачи
Размер:  635 MB   |    Зарегистрирован:  2 года 1 месяц   |    Скачан:  14 раз
Сидов:  1  |  0 KB/s  ]   Личеров:  0  |  0 KB/s  ]

* - сиды/пиры с внешних источников

   
 
Автор Сообщение

Бишеп Пол:Муж

19-Дек-2013 14:15

Дискотека Авария - Grand Collection

Жанр: Pop
Год выпуска: 2009
Источник: CD
Производитель диска: Квадро-Диск - GCR 283
Аудиокодек: APE
Тип рипа: Image+.CUE
Битрейт аудио: lossless
Продолжительность: 01:19:29


Треклист:
01. Серенада
02. Если хочешь остаться
03. Небо
04. Отцы
05. Disco Superstar
06. Опа!
07. На острие атаки
08. Песня про яйца
09. Некуда деваться
10. Х.Х.Х.И.Р.Н.Р.
11. Я тебя не скоро... (Eвпатория Rmх) - C "Ляпис Трубецкой"
12. Хип-хоп маньяки
13. Пей пиво!
14. Заколебал ты
15. Малинки - C Жанна Фриске
16. Планета любовь (New 2009)
17. Влечение - C "Жуки"
18. Новогодняя
19. Суровый рэп

Код:

Exact Audio Copy V0.99 prebeta 4 from 23. January 2008

Отчёт EAC об извлечении, выполненном 23. августа 2009, 13:19

Дискотека Авария / Grand Collection

Дисковод: TSSTcorpCD/DVDW SH-S183L   Adapter: 3  ID: 0

Режим чтения                 : Достоверность
Использование точного потока : Да
Отключение кэша аудио        : Да
Использование указателей C2  : Нет

Коррекция смещения при чтении                     : 6
Способность читать области Lead-in и Lead-out     : Нет
Заполнение пропущенных сэмплов тишиной            : Да
Удаление блоков с тишиной в начале и конце        : Нет
При вычислениях CRC использовались нулевые сэмплы : Да
Интерфейс                                         : Установленный внешний ASPI-интерфейс

Выходной формат : Внутренние WAV-операции
Формат сэмплов  : 44.100 Гц; 16 бит; стерео

TOC извлечённого CD

     Трек |   Старт  | Длительность | Начальный сектор | Конечный сектор
    ---------------------------------------------------------------------
       1  |  0:00.00 |    3:44.69   |           0      |      16868     
       2  |  3:44.69 |    4:50.10   |       16869      |      38628     
       3  |  8:35.04 |    3:56.35   |       38629      |      56363     
       4  | 12:31.39 |    3:52.20   |       56364      |      73783     
       5  | 16:23.59 |    5:33.00   |       73784      |      98758     
       6  | 21:56.59 |    3:36.47   |       98759      |     115005     
       7  | 25:33.31 |    3:31.16   |      115006      |     130846     
       8  | 29:04.47 |    4:22.10   |      130847      |     150506     
       9  | 33:26.57 |    3:48.25   |      150507      |     167631     
      10  | 37:15.07 |    3:24.22   |      167632      |     182953     
      11  | 40:39.29 |    5:09.40   |      182954      |     206168     
      12  | 45:48.69 |    3:41.62   |      206169      |     222805     
      13  | 49:30.56 |    4:00.74   |      222806      |     240879     
      14  | 53:31.55 |    3:29.10   |      240880      |     256564     
      15  | 57:00.65 |    3:58.72   |      256565      |     274486     
      16  | 60:59.62 |    4:45.10   |      274487      |     295871     
      17  | 65:44.72 |    4:40.43   |      295872      |     316914     
      18  | 70:25.40 |    5:24.04   |      316915      |     341218     
      19  | 75:49.44 |    3:39.56   |      341219      |     357699     

Характеристики диапазона извлечения и сообщения об ошибках

Выбранный диапазон

     Имя файла G:\Дискотека Авария - Grand Collection.wav

     Пиковый уровень 97.9 %
     Качество диапазона 100.0 %
     CRC теста 198815B7
     CRC копии 198815B7
     Копирование... OK

Ошибок не произошло

 
AccurateRip: сводка
 
Трек  1  нет в базе данных
Трек  2  нет в базе данных
Трек  3  нет в базе данных
Трек  4  нет в базе данных
Трек  5  нет в базе данных
Трек  6  нет в базе данных
Трек  7  нет в базе данных
Трек  8  нет в базе данных
Трек  9  нет в базе данных
Трек 10  нет в базе данных
Трек 11  нет в базе данных
Трек 12  нет в базе данных
Трек 13  нет в базе данных
Трек 14  нет в базе данных
Трек 15  нет в базе данных
Трек 16  нет в базе данных
Трек 17  нет в базе данных
Трек 18  нет в базе данных
Трек 19  нет в базе данных
 
Ни одного трека нет в базе AccurateRip

Конец отчёта

Код:

REM GENRE Hip-Hop
REM DATE 2009
REM DISCID 0912A113
REM COMMENT "ExactAudioCopy v0.99pb4"
PERFORMER "Дискотека Авария"
TITLE "Grand Collection"
FILE "Дискотека Авария - Grand Collection.ape" WAVE
  TRACK 01 AUDIO
    TITLE "Серенада"
    PERFORMER "Дискотека Авария"
    INDEX 01 00:00:00
  TRACK 02 AUDIO
    TITLE "Если хочешь остаться"
    PERFORMER "Дискотека Авария"
    INDEX 00 03:44:67
    INDEX 01 03:44:69
  TRACK 03 AUDIO
    TITLE "Небо"
    PERFORMER "Дискотека Авария"
    INDEX 01 08:35:04
  TRACK 04 AUDIO
    TITLE "Отцы"
    PERFORMER "Дискотека Авария"
    INDEX 00 12:31:38
    INDEX 01 12:31:39
  TRACK 05 AUDIO
    TITLE "Disco Superstar"
    PERFORMER "Дискотека Авария"
    INDEX 01 16:23:59
  TRACK 06 AUDIO
    TITLE "Опа!"
    PERFORMER "Дискотека Авария"
    INDEX 00 21:56:53
    INDEX 01 21:56:59
  TRACK 07 AUDIO
    TITLE "На острие атаки"
    PERFORMER "Дискотека Авария"
    INDEX 00 25:33:29
    INDEX 01 25:33:31
  TRACK 08 AUDIO
    TITLE "Песня про яйца"
    PERFORMER "Дискотека Авария"
    INDEX 00 29:04:44
    INDEX 01 29:04:47
  TRACK 09 AUDIO
    TITLE "Некуда деваться"
    PERFORMER "Дискотека Авария"
    INDEX 01 33:26:57
  TRACK 10 AUDIO
    TITLE "Х.Х.Х.И.Р.Н.Р."
    PERFORMER "Дискотека Авария"
    INDEX 01 37:15:07
  TRACK 11 AUDIO
    TITLE "Я тебя не скоро (Евпатория Remix)"
    PERFORMER "Дискотека Авария"
    INDEX 01 40:39:29
  TRACK 12 AUDIO
    TITLE "Хип-хоп маньяки"
    PERFORMER "Дискотека Авария"
    INDEX 01 45:48:69
  TRACK 13 AUDIO
    TITLE "Пей пиво!"
    PERFORMER "Дискотека Авария"
    INDEX 01 49:30:56
  TRACK 14 AUDIO
    TITLE "Заколебал ты!"
    PERFORMER "Дискотека Авария"
    INDEX 01 53:31:55
  TRACK 15 AUDIO
    TITLE "Малинки (с Жанной Фриске)"
    PERFORMER "Дискотека Авария"
    INDEX 00 57:00:63
    INDEX 01 57:00:65
  TRACK 16 AUDIO
    TITLE "Планета любовь"
    PERFORMER "Дискотека Авария"
    INDEX 01 60:59:62
  TRACK 17 AUDIO
    TITLE "Авария против Жуков: Влечение"
    PERFORMER "Дискотека Авария"
    INDEX 01 65:44:72
  TRACK 18 AUDIO
    TITLE "Новогодняя"
    PERFORMER "Дискотека Авария"
    INDEX 01 70:25:40
  TRACK 19 AUDIO
    TITLE "Суровый рэп"
    PERFORMER "Дискотека Авария"
    INDEX 00 75:49:40
    INDEX 01 75:49:44

Этот торрент недоступен для скачивания без регистрации, однако доступен по публичной magnet-ссылке (источники с публичных трекеров). Перед использованием ссылки прочтите, пожалуйста Пользовательское соглашение, а также как можно дольше оставайтесь на раздаче! Для того, чтобы скачать сам торрент-файл (который видит больше источников), а также для того, чтобы поблагодарить релизера, вам необходимо зарегистрироваться. Если регистрироваться лень - вы можете также попробовать скачать релиз по нашим партнерским ссылкам ниже. Кроме того, зарегистрированным пользователям не показывается всплывающая реклама при скачивании.

[underverse.su].t68661.torrent
Трекер: Зарегистрирован   [ 05.08.2016 13:18 ]  

Статус: проверено (by Бишеп at 05.08.2016 13:18)
Поблагодарили: пока никто не поблагодарил...
Тип торрента: публичный - доступные источники с открытых трекеров: 
Размер: 635 MB (занимает 0,14 DVDR, для записи нужно 1 болванка DVDR/RW)
 
 
Похожие темы
Форум Тема Автор Торрент Отв. Посл. сооб.
Отечественная Поп Музыка (Lossless) (Pop) Дискотека Авария - Маньяки (2001) [APE (Image+.CUE), Lossless] Бишеп
7 | 0

1 | 1151

6

26.01.2014 10:23

Отечественная Поп Музыка (Lossless) (Pop) Дискотека Авария - Девушка за рулём (2014) [FLAC (Image+.Cue), Lossless] Бишеп
7 | 0

0 | 918

5

06.07.2016 18:29

Отечественная Поп Музыка (Lossless) (Pop) Дискотека Авария - Империя Звезд (2002) [FLAC (Image+.Cue), Lossless] Бишеп
3 | 0

0 | 416

4

26.02.2018 19:14

Отечественная Поп Музыка (Lossless) (Pop) Дискотека Авария - The Best (2009) [FLAC (Image+.CUE), Lossless] Бишеп
0 | 0

0 | 200

7

05.07.2018 10:12

Архив (популярная музыка) (Pop) Дискотека Авария - Дискография (1998-2008) [MP3, VBR 320 kbps] Алексей 25
0 | 0

1 | 1951

0

16.06.2011 08:09



Последний раз редактировалось: Бишеп (05.08.2016 13:20), всего редактировалось 1 раз

Бишеп Пол:Муж

05-Авг-2016 13:19

Апнул, новый релиз.

Яндекс.Метрика powered by Sphinx


В Н И М А Н И Е
Сайт не распространяет и не хранит электронные версии произведений, а лишь бесплатно и без коммерческой выгоды (не требуя взамен платы,
SMS и т.д.) предоставляет доступ к создаваемому пользователями каталогу ссылок на торрент-файлы, которые содержат только списки хеш-сумм.
Убедительная просьба с жалобами обращаться напрямую к пользователю, разместившему торрент файл.

Вверх