Loading...
Error

Дедвуд / Дэдвуд / Deadwood / Cезон: 2 / Серии: 1-12 (Эдвард Бьянчи, Даниэль Минахан) [2005 г., драма, криминальный, вестерн, BDRip] AVO + Original

Статистика раздачи
Размер:  12,67 GB   |    Зарегистрирован:  2 года 11 месяцев   |    Скачан:  9 раз

Полного источника не было: 3 дня

Сидов:  0  |  0 KB/s  ]   Личеров:  0  |  0 KB/s  ]

* - сиды/пиры с внешних источников

   
 
Автор Сообщение

garry Пол:Муж

18-Дек-2013 18:48

Дедвуд / Дэдвуд / Deadwood / Cезон: 2 / Серии: 1-12


Год выпуска: 2005
Жанр: драма, криминальный, вестерн
Страна: США
Режиссер: Эдвард Бьянчи, Даниэль Минахан
В ролях: Тимоти Олифант, Иэн МакШейн, Молли Паркер, Брэд Дуриф, У. Эрл Браун, Джон Хоукс, Паула Малкомсон, Дэйтон Калли, Леон Риппи, Уильям Сэндерсон и другие...
Сюжет фильма:
1876 год. Городок Дедвуд в Южной Дакоте — настоящая выгребная яма, в которой собирается преступный сброд со всей Америки. Преступления и коррупция настолько прочно вошли в жизнь обитателей Дедвуда, что на них практически не обращают внимания. Убийства привлекают меньше внимания, чем танцы девочек в местном салуне.

В этот, далекий от цивилизации, городишко и приезжают два бывших шерифа — Дикий Билл Хикок и Сэт Баллок — люди, надеющиеся начать новую жизнь. Несмотря на желание жить спокойно и мирно, Хикок и Балок быстро оказываются по разные стороны баррикад с главой местной организованной преступности и фактическим хозяином Дедвуда, Элом Сверендженом — владельцем салуна и гостиницы.

Жизни обоих мужчин самым причудливым образом переплетутся не только с жизнью Элла Сверенджена, но и с жизнями других обитателей города Дедвуд.

Качество видео: BDRip

Продолжительность: ~00:50:00
Формат: AVI
Видео: XviD, 720x400, 2200 kbps
Аудио #1: русский, одноголосый закадровый [авторский, Сербин], AC3 5.1, 448 kbps
Аудио #2: английский, оригинал, AC3 5.1, 448 kbps
Субтитры #1: тип: внешние, русский, формат: SRT
Субтитры #2: тип: внешние, английский, формат: SRT

Код:

General
Complete name                    : E:\Deadwood.s02.BDRip.(Ю.Сербин).XviD.AC3.-SVM\Deadwood.s02e01.BDRip.(Ю.Сербин).XviD.AC3.-SVM.avi
Format                           : AVI
Format/Info                      : Audio Video Interleave
File size                        : 1.07 GiB
Duration                         : 49mn 1s
Overall bit rate                 : 3 124 Kbps
Writing application              : VirtualDubMod 1.5.10.2 (build 2540/release)
Writing library                  : VirtualDubMod build 2540/release

Video
ID                               : 0
Format                           : MPEG-4 Visual
Format profile                   : Advanced Simple@L5
Format settings, BVOP            : 2
Format settings, QPel            : No
Format settings, GMC             : No warppoints
Format settings, Matrix          : Default (MPEG)
Muxing mode                      : Packed bitstream
Codec ID                         : XVID
Codec ID/Hint                    : XviD
Duration                         : 49mn 1s
Bit rate                         : 2 214 Kbps
Width                            : 720 pixels
Height                           : 400 pixels
Display aspect ratio             : 16:9
Frame rate                       : 23.976 fps
Resolution                       : 8 bits
Colorimetry                      : 4:2:0
Scan type                        : Progressive
Bits/(Pixel*Frame)               : 0.311
Stream size                      : 776 MiB (71%)
Writing library                  : XviD 1.2.1 (UTC 2008-12-04)

Audio #1
ID                               : 1
Format                           : AC-3
Format/Info                      : Audio Coding 3
Codec ID                         : 2000
Duration                         : 49mn 1s
Bit rate mode                    : Constant
Bit rate                         : 448 Kbps
Channel(s)                       : 6 channels
Channel positions                : Front: L C R, Surround: L R, LFE
Sampling rate                    : 48.0 KHz
Stream size                      : 157 MiB (14%)
Alignment                        : Split accross interleaves
Interleave, duration             : 42 ms (1.00 video frame)
Interleave, preload duration     : 500 ms

Audio #2
ID                               : 2
Format                           : AC-3
Format/Info                      : Audio Coding 3
Codec ID                         : 2000
Duration                         : 49mn 1s
Bit rate mode                    : Constant
Bit rate                         : 448 Kbps
Channel(s)                       : 6 channels
Channel positions                : Front: L C R, Surround: L R, LFE
Sampling rate                    : 48.0 KHz
Stream size                      : 157 MiB (14%)
Alignment                        : Split accross interleaves
Interleave, duration             : 42 ms (1.00 video frame)
Interleave, preload duration     : 500 ms
Релиз: svm-mfs

picpicpic
Для увеличения картинки щелкните мышкой по превью

Этот торрент недоступен для скачивания без регистрации, однако доступен по публичной magnet-ссылке (источники с публичных трекеров). Перед использованием ссылки прочтите, пожалуйста Пользовательское соглашение, а также как можно дольше оставайтесь на раздаче! Для того, чтобы скачать сам торрент-файл (который видит больше источников), а также для того, чтобы поблагодарить релизера, вам необходимо зарегистрироваться. Если регистрироваться лень - вы можете также попробовать скачать релиз по нашим партнерским ссылкам ниже.

[underverse.su].t34357.torrent
Трекер: Зарегистрирован   [ 18.12.2013 18:48 ]  

Статус: проверено (by garry at 18.12.2013 18:48)
Поблагодарили: 1 человек
Тип торрента: публичный - доступные источники с открытых трекеров: 
Размер: 12,67 GB (занимает 2,89 DVDR, для записи нужно 3 болванки DVDR/RW)
 
 
Похожие темы
Форум Тема Автор Торрент Отв. Посл. сооб.
Зарубежные сериалы Дедвуд / Дэдвуд / Deadwood / Сезон: 1 / Серии: 1-12 (Эдвард Бьянчи, Даниэль Минахан, Дэвис Гуггенхейм) [2004 г., драма, криминальный, вестерн, BDRip] AVO + Original garry
11 | 1

0 | 2041

11

16.12.2013 01:10

Зарубежные сериалы Дедвуд / Дэдвуд / Deadwood / Cезон: 3 / Серии: 1-12 (Эдвард Бьянчи, Даниэль Минахан) [2006 г., драма, криминальный, вестерн, BDRip] AVO + Original garry
19 | 9

0 | 1895

9

18.12.2013 19:06



Последний раз редактировалось: garry (18.12.2013 19:08), всего редактировалось 2 раз(а)

garry Пол:Муж

18-Дек-2013 18:49

Цитата:

мультитрактор
:D

Яндекс.Метрика powered by Sphinx


В Н И М А Н И Е
Сайт не распространяет и не хранит электронные версии произведений, а лишь бесплатно и без коммерческой выгоды (не требуя взамен платы,
SMS и т.д.) предоставляет доступ к создаваемому пользователями каталогу ссылок на торрент-файлы, которые содержат только списки хеш-сумм.
Убедительная просьба с жалобами обращаться напрямую к пользователю, разместившему торрент файл.

Вверх