Loading...
Error

Город гангстеров / Mob City / Сезон: 1 / Серии: 1-6 (Фрэнк Дарабонт, Гай Ферленд) [2013 г., триллер, драма, криминал, детектив, WEB-DLRip] MVO

Статистика раздачи
Размер:  3,31 GB   |    Зарегистрирован:  2 года 11 месяцев   |    Скачан:  9 раз

Полного источника не было: 1 месяц 3 дня

Сидов:  0  |  0 KB/s  ]   Личеров:  0  |  0 KB/s  ]

* - сиды/пиры с внешних источников

   
 
Автор Сообщение

garry Пол:Муж

18-Дек-2013 18:38

Город гангстеров / Mob City


Год выпуска: 2013
Жанр: триллер, драма, криминал, детектив
Страна: США
Режиссер: Фрэнк Дарабонт, Гай Ферленд
В ролях: Джон Бернтал, Эдвард Бёрнс, Майло Вентимилья, Нил МакДонаф, Алекса Давалос, Джеффри ДеМанн, Роберт Неппер, Джереми Люк, Грегори Итцин, Иддо Голдберг
Сюжет фильма:
Реальная история многолетнего конфликта между департаментом полиции Лос-Анджелеса под руководством Уильяма Паркера и безжалостных преступников во главе с Микки Коэном, боксёром, который взошёл на вершину криминального мира этого города.

Качество видео: WEB-DLRip

Продолжительность: ~00:48:00
Формат: AVI
Видео: XviD, 720x400, 1522 kbps
Аудио: русский, многоголосый закадровый [профессиональный], MP3 2.0, 192 kbps

Код:

Полное имя : Е:\Mob City\Mob.City.S01E01.rus.LostFilm.avi
 Формат : AVI
 Формат/Информация : Audio Video Interleave
 Размер файла : 596 Мбайт
 Продолжительность : 48 м.
 Режим общего битрейта : Переменный
 Общий поток : 1722 Кбит/сек
 Программа кодирования : Nandub v1.0rc2
 Библиотека кодирования : Nandub build 1853/release

Видео
 Идентификатор : 0
 Формат : MPEG-4 Visual
 Профиль формата : Simple@L3
 Параметр BVOP формата : Нет
 Параметр QPel формата : Нет
 Параметр GMC формата : Без точки перехода
 Параметр матрицы формата : Default (H.263)
 Идентификатор кодека : XVID
 Идентификатор кодека/Подсказка : XviD
 Продолжительность : 48 м.
 Битрейт : 1522 Кбит/сек
 Ширина : 720 пикселей
 Высота : 400 пикселей
 Соотношение сторон : 16:9
 Частота кадров : 23,976 кадра/сек
 Цветовое пространство : YUV
 Субдискретизация насыщенности : 4:2:0
 Битовая глубина : 8 бит
 Тип развёртки : Прогрессивная
 Метод сжатия : С потерями
 Бит/(Пиксели*Кадры) : 0.220
 Размер потока : 527 Мбайт (88%)
 Библиотека кодирования : XviD 1.2.1 (UTC 2008-12-04)

Аудио
 Идентификатор : 1
 Формат : MPEG Audio
 Версия формата : Version 1
 Профиль формата : Layer 3
 Режим : Joint stereo
 Идентификатор кодека : 55
 Идентификатор кодека/Подсказка : MP3
 Продолжительность : 48 м.
 Вид битрейта : Переменный
 Битрейт : 192 Кбит/сек
 Каналы : 2 канала
 Частота : 48,0 КГц
 Метод сжатия : С потерями
 Размер потока : 64,7 Мбайт (11%)
 Выравнивание : Соединение по промежуткам
 Продолжительность промежутка : 24 мс. (0,58 видеокадр)
 Время предзагрузки промежутка : 542 мс.
 Библиотека кодирования : LAME3.97b
 Настройки программы : -m j -V 4 -q 3 -lowpass 18.6 --abr 192
Семпл: http://sendfile.su/906733

Релиз группы:

picpicpic
Для увеличения картинки щелкните мышкой по превью

Этот торрент недоступен для скачивания без регистрации, однако доступен по публичной magnet-ссылке (источники с публичных трекеров). Перед использованием ссылки прочтите, пожалуйста Пользовательское соглашение, а также как можно дольше оставайтесь на раздаче! Для того, чтобы скачать сам торрент-файл (который видит больше источников), а также для того, чтобы поблагодарить релизера, вам необходимо зарегистрироваться. Если регистрироваться лень - вы можете также попробовать скачать релиз по нашим партнерским ссылкам ниже.

[underverse.su].t34355.torrent
Трекер: Зарегистрирован   [ 01.01.2014 21:02 ]  

Статус: проверено (by garry at 01.01.2014 21:09)
Поблагодарили: 1 человек
Тип торрента: публичный - доступные источники с открытых трекеров: 
Размер: 3,31 GB (занимает 0,76 DVDR, для записи нужно 1 болванка DVDR/RW)
 
 

garry Пол:Муж

01-Янв-2014 21:02

весь сезон.

Яндекс.Метрика powered by Sphinx


В Н И М А Н И Е
Сайт не распространяет и не хранит электронные версии произведений, а лишь бесплатно и без коммерческой выгоды (не требуя взамен платы,
SMS и т.д.) предоставляет доступ к создаваемому пользователями каталогу ссылок на торрент-файлы, которые содержат только списки хеш-сумм.
Убедительная просьба с жалобами обращаться напрямую к пользователю, разместившему торрент файл.

Вверх