Loading...
Error

Не ставьте Лешему капканы... ( Владимир Саруханов) [ 1981 г., боевик, DVDRip]

Статистика раздачи
Размер:  1,09 GB   |    Зарегистрирован:  2 года 11 месяцев   |    Скачан:  13 раз

Полного источника не было: 6 месяцев

Сидов:  0  |  0 KB/s  ]   Личеров:  0  |  0 KB/s  ]

* - сиды/пиры с внешних источников

   
 
Автор Сообщение

konopic Пол:Муж

18-Дек-2013 12:07

Не ставьте Лешему капканы...


Год выпуска: 1981
Жанр: боевик
Страна: СССР, Студия Горького
Режиссер: Владимир Саруханов
В ролях: Саттар Дикамбаев, Иногам Адылов, Айтурган Темирова, Юрий Назаров, Ульмас Алиходжаев, Георгий Назаренко, Анатолий Игнатьев, Владимир Смирнов, Владимир Федоров, Нина Саруханова...
Сюжет фильма:
Гражданская война окончена, и на земле Хакасии налаживается новая жизнь. Однако все еще дают знать о себе остатки недобитых банд, скрывающихся в тайге и наводящих ужас на испуганных местных жителей. Красноармеец Сыгды Кирбижеков получает задание проникнуть в одну из банд и «разоружить» ее изнутри...

  • Мировая премьера: 28 сентября 1981


Качество видео: DVDRip

Продолжительность: 01:12:53
Формат: AVI
Видео: 688x528 (4:3), 25 fps, XviD ~ 1944 kbps avg, 0.214 bit/pixel
Аудио: 48 kHz, Dolby AC3 2.0, 192 kbps

Код:

Общее
Полное имя : Ne.stavte.Leshemu.kapkany.1981.DVDRip_[New-team]_by_AVP_Studio.avi
Формат : AVI
Формат/Информация : Audio Video Interleave
Размер файла : 1,09 Гбайт
Продолжительность : 1 ч. 12 м.
Общий поток : 2145 Кбит/сек
Программа кодирования : VirtualDubModRus 1.5.10.2 (build 2542/release)
Библиотека кодирования : VirtualDubMod build 2542/release

Видео
Идентификатор : 0
Формат : MPEG-4 Visual
Профиль формата : Advanced Simple@L5
Параметр BVOP формата : 1
Параметр QPel формата : Нет
Параметр GMC формата : Без точки перехода
Параметр матрицы формата : Выборочная
Идентификатор кодека : XVID
Идентификатор кодека/Подсказка : XviD
Продолжительность : 1 ч. 12 м.
Битрейт : 1944 Кбит/сек
Ширина : 688 пикселей
Высота : 528 пикселей
Соотношение сторон : 4:3
Частота кадров : 25,000 кадров/сек
Цветовое пространство : YUV
Субдискретизация насыщенности : 4:2:0
Битовая глубина : 8 бит
Тип развёртки : Прогрессивная
Метод сжатия : С потерями
Бит/(Пиксели*Кадры) : 0.214
Размер потока : 1013 Мбайт (91%)
Библиотека кодирования : XviD 73

Аудио
Идентификатор : 1
Формат : AC-3
Формат/Информация : Audio Coding 3
Расширение режима : CM (complete main)
Идентификатор кодека : 2000
Продолжительность : 1 ч. 12 м.
Вид битрейта : Постоянный
Битрейт : 192 Кбит/сек
Каналы : 2 канала
Расположение каналов : Front: L R
Частота : 48,0 КГц
Битовая глубина : 16 бит
Метод сжатия : С потерями
Размер потока : 100 Мбайт (9%)
Выравнивание : Разделение по промежуткам
Продолжительность промежутка : 40 мс. (1,00 видеокадр)
Время предзагрузки промежутка : 500 мс
Семпл: http://sendfile.su/911342

picpicpicpicpicpic
Для увеличения картинки щелкните мышкой по превью

Этот торрент недоступен для скачивания без регистрации, однако доступен по публичной magnet-ссылке (источники с публичных трекеров). Перед использованием ссылки прочтите, пожалуйста Пользовательское соглашение, а также как можно дольше оставайтесь на раздаче! Для того, чтобы скачать сам торрент-файл (который видит больше источников), а также для того, чтобы поблагодарить релизера, вам необходимо зарегистрироваться. Если регистрироваться лень - вы можете также попробовать скачать релиз по нашим партнерским ссылкам ниже.

[underverse.su].t34345.torrent
Трекер: Зарегистрирован   [ 18.12.2013 12:07 ]  

Статус: проверено (by 90ytr90 at 18.12.2013 15:07)
Поблагодарили: пока никто не поблагодарил...
Тип торрента: публичный - доступные источники с открытых трекеров: 
Размер: 1,09 GB (занимает 0,25 DVDR, для записи нужно 1 болванка DVDR/RW)
 
 

Яндекс.Метрика powered by Sphinx


В Н И М А Н И Е
Сайт не распространяет и не хранит электронные версии произведений, а лишь бесплатно и без коммерческой выгоды (не требуя взамен платы,
SMS и т.д.) предоставляет доступ к создаваемому пользователями каталогу ссылок на торрент-файлы, которые содержат только списки хеш-сумм.
Убедительная просьба с жалобами обращаться напрямую к пользователю, разместившему торрент файл.

Вверх