Loading...
Error

Не женское дело / Серии: 1-8 (8) ( Александр Калугин) [2013 г., Криминал, Мелодрама, SatRip]

Статистика раздачи
Размер:  4,15 GB   |    Зарегистрирован:  2 года 11 месяцев   |    Скачан:  23 раза
Сидов:  1  |  24 KB/s  ]   Личеров:  0  |  0 KB/s  ]

* - сиды/пиры с внешних источников

   
 
Автор Сообщение

nemos Пол:Муж

17-Дек-2013 16:38

Не женское дело


Год выпуска: 2013
Жанр: Криминал, Мелодрама
Страна: Россия
Режиссер: Александр Калугин
В ролях: Мария Луговая, Виктория Маслова, Владимир Епифанцев, Константин Крюков, Сергей Никоненко, Анна Банщикова, Екатерина Стриженова, Людмила Полякова, Дмитрий Муляр, Фёдор Лавров, Дмитрий Исаев, Алексей Лысенков, Лилия Мэй, Дмитрий Янышевский, Наталия Антонова, Татьяна Косач-Брындина, Александр Никольский, Дмитрий Юмашев, Эрик Холявко-Гришин, Максим Артамонов, Диана Максимова, Александр Федичкин, Игорь Филиппов
Сюжет фильма:
Жизнь, как известно не проста, и у каждого человека, даже если он полицейский, может быть своя тайна в прошлом. Две главные героини сериала «Не женское дело» работают в специальном отдележенской полиции – расследуют и консультируют дела, связанные с женскойпреступностью, но и у них есть свои скелеты в шкафу. Лейтенант Елена Николаева, учась в юридическом институте по вечерам подрабатывала в эскорт-услугах, чтобы оплатить лечение для больной матери. У майора Ольги Кирсановой, опытного потомственного полицейского был нервный срыв после обвинения в убийстве мужа. Чтобы снять стресс Ольга выбрала старое русское средство - алкоголь. Такие тайны из прошлого ставят под угрозу блестящие карьеры женщин-полицейских, потому что этими козырями могут воспользоваться враги.


Качество видео: SatRip

Продолжительность: 00:43:11 серия
Формат: AVI
Видео: XviD, 720х384, 1 444 kbps
Аудио: русский, MP3 2.0, 192 kbps

Код:

E:\Фильмы (роздача)\Не женское дело (2013)\Не женское дело.(08.seriya).2013.XviD.SATRip.by.simka.avi
   General
      Complete name : E:\Фильмы (роздача)\Не женское дело (2013)\Не женское дело.(08.seriya).2013.XviD.SATRip.by.simka.avi
      Format : AVI
      Format/Info : Audio Video Interleave
      File size : 508 MiB
      Duration : 43mn 11s
      Overall bit rate : 1 646 Kbps
      Writing application : VirtualDubModRus 1.5.10.2 (build 2542/release)
      Writing library : VirtualDubMod build 2542/release
   Video #0
      ID : 0
      Format : MPEG-4 Visual
      Format profile : Advanced Simple@L5
      Format settings, BVOP : 1
      Format settings, QPel : No
      Format settings, GMC : No warppoints
      Format settings, Matrix : Default (H.263)
      Codec ID : XVID
      Codec ID/Hint : XviD
      Duration : 43mn 11s
      Bit rate : 1 444 Kbps
      Width : 720 pixels
      Height : 384 pixels
      Display aspect ratio : 1.85:1
      Frame rate : 25.000 fps
      Color space : YUV
      Chroma subsampling : 4:2:0
      Bit depth : 8 bits
      Scan type : Progressive
      Compression mode : Lossy
      Bits/(Pixel*Frame) : 0.209
      Stream size : 446 MiB (88%)
      Writing library : XviD 1.2.1 (UTC 2008-12-04)
   Audio #1
      ID : 1
      Format : MPEG Audio
      Format version : Version 1
      Format profile : Layer 3
      Mode : Joint stereo
      Mode extension : MS Stereo
      Codec ID : 55
      Codec ID/Hint : MP3
      Duration : 43mn 11s
      Bit rate mode : Constant
      Bit rate : 192 Kbps
      Channel(s) : 2 channels
      Sampling rate : 48.0 KHz
      Compression mode : Lossy
      Stream size : 59.3 MiB (12%)
      Alignment : Aligned on interleaves
      Interleave, duration : 40 ms (1.00 video frame)
      Interleave, preload duration : 504 ms
      Writing library : LAME3.99r
      Encoding settings : -m j -V 4 -q 2 -lowpass 18.6 -b 192
Семпл: http://multi-up.com/933256

picpicpicpicpicpicpicpicpicpicpicpicpicpicpicpicpic
Для увеличения картинки щелкните мышкой по превью

Этот торрент недоступен для скачивания без регистрации, однако доступен по публичной magnet-ссылке (источники с публичных трекеров). Перед использованием ссылки прочтите, пожалуйста Пользовательское соглашение, а также как можно дольше оставайтесь на раздаче! Для того, чтобы скачать сам торрент-файл (который видит больше источников), а также для того, чтобы поблагодарить релизера, вам необходимо зарегистрироваться. Если регистрироваться лень - вы можете также попробовать скачать релиз по нашим партнерским ссылкам ниже.

[underverse.su].t34394.torrent
Трекер: Зарегистрирован   [ 20.12.2013 11:22 ]  

Статус: проверено (by 90ytr90 at 21.12.2013 17:29)
Поблагодарили: 2 человека
Тип торрента: публичный - доступные источники с открытых трекеров: 
Размер: 4,15 GB (занимает 0,95 DVDR, для записи нужно 1 болванка DVDR/RW)
 
 


Последний раз редактировалось: nemos (21.12.2013 16:28), всего редактировалось 3 раз(а)

nemos Пол:Муж

18-Дек-2013 06:44

Торрент обновлён! Добавлены серии: 5-8

Яндекс.Метрика powered by Sphinx


В Н И М А Н И Е
Сайт не распространяет и не хранит электронные версии произведений, а лишь бесплатно и без коммерческой выгоды (не требуя взамен платы,
SMS и т.д.) предоставляет доступ к создаваемому пользователями каталогу ссылок на торрент-файлы, которые содержат только списки хеш-сумм.
Убедительная просьба с жалобами обращаться напрямую к пользователю, разместившему торрент файл.

Вверх