Loading...
Error

Горюнов / Серии: 1-36 из 36 (Мирослав Малич, Владимир Балкашинов) [2013 г., Остросюжетный сериал, SatRip]

Статистика раздачи
Размер:  18,02 GB   |    Зарегистрирован:  2 года 11 месяцев   |    Скачан:  18 раз

Полного источника не было: 8 часов

Сидов:  0  |  0 KB/s  ]   Личеров:  0  |  0 KB/s  ]

* - сиды/пиры с внешних источников

   
 
Автор Сообщение

konopic Пол:Муж

16-Дек-2013 13:19

Горюнов


Год выпуска: 2013
Жанр: Остросюжетный сериал
Страна: Россия, ООО «Продюсерский Центр Сергея Жигунова»
Режиссер: Мирослав Малич, Владимир Балкашинов
В ролях: Максим Аверин, Юлия Марченко, Сергей Мигицко, Екатерина Вуличенко, Андрей Кайков, Дмитрий Кочкин, Екатерина Климова, Дмитрий Ульянов, Митя Лабуш, Виктор Добронравов, Алексей Шевченков, Дмитрий Блохин, Анна Халилулина, Лидия Милюзина, Игорь Ключников, Сергей Малюгов, Роман Притула, Александр Стекольников, Максим Меркулов (II), Инна Ярмошук, Дмитрий Олейник, Наташа Варфоломеева, Олег Жилин, Сергей Евдокимов, Азамат Нигманов, Юлия Денисова, Анатолий Хропов, Иван Свечников, Александр Блок, Сергей Маркеев, Михаил Сливников, Иван Дубровский, Лариса Климова, Ирина Основина, Кузьма Стомаченко, Мария Безносова, Андрей Терентьев, Кирилл Горбунов
Сюжет фильма:
Северный флот. Здесь служат только настоящие мужчины. Здесь уважают стойкость, смелость и не прощают слабостей. И здесь несет круглосуточную вахту экипаж подводной лодки под командованием Павла Горюнова. Капитан I ранга, командир подводной лодки К-333 «Рысь» Павел Горюнов – настоящий мужик и друг, морской волк, прошедший не одну «автономку». Боевой офицер, не терпящий «штабных крыс», он по праву считается одним из лучших командиров-подводников Северного флота. Несмотря на свой строптивый и своенравный характер, Горюнов всегда готов к выполнению самых сложных и ответственных заданий...


Качество видео: SatRip

Продолжительность: 36 х ~ 00:44:00
Формат: AVI
Видео: XviD, ~ 1500 Кбит/с, 720х448
Аудио: MP3, 2 ch, 128 Кбит/с

Код:

Общее
Полное имя                               : D:\Goryunov.2013.SATRip.KZ\Goryunov.01.2013.SATRip.KZ.avi
Формат                                   : AVI
Формат/Информация                        : Audio Video Interleave
Размер файла                             : 512 Мбайт
Продолжительность                        : 43 м.
Общий поток                              : 1633 Кбит/сек
Программа кодирования                    : VirtualDubMod 1.5.10.2 (build 2540/release)
Библиотека кодирования                   : VirtualDub build 32507/release

Видео
Идентификатор                            : 0
Формат                                   : MPEG-4 Visual
Профиль формата                          : Advanced Simple@L5
Параметр BVOP формата                    : 2
Параметр QPel формата                    : Нет
Параметр GMC формата                     : Без точки перехода
Параметр матрицы формата                 : Default (MPEG)
Идентификатор кодека                     : XVID
Идентификатор кодека/Подсказка           : XviD
Продолжительность                        : 43 м.
Битрейт                                  : 1495 Кбит/сек
Ширина                                   : 720 пикселей
Высота                                   : 448 пикселей
Соотношение сторон                       : 16:10
Частота кадров                           : 25,000 кадров/сек
Цветовое пространство                    : YUV
Субдискретизация насыщенности            : 4:2:0
Битовая глубина                          : 8 бит
Тип развёртки                            : Прогрессивная
Метод сжатия                             : С потерями
Бит/(Пиксели*Кадры)                      : 0.185
Размер потока                            : 469 Мбайт (92%)
Библиотека кодирования                   : XviD 64

Аудио
Идентификатор                            : 1
Формат                                   : MPEG Audio
Версия формата                           : Version 1
Профиль формата                          : Layer 3
Режим                                    : Joint stereo
Расширение режима                        : MS Stereo
Идентификатор кодека                     : 55
Идентификатор кодека/Подсказка           : MP3
Продолжительность                        : 43 м.
Вид битрейта                             : Постоянный
Битрейт                                  : 128 Кбит/сек
Каналы                                   : 2 канала
Частота                                  : 48,0 КГц
Метод сжатия                             : С потерями
Размер потока                            : 40,1 Мбайт (8%)
Выравнивание                             : Соединение по промежуткам
Продолжительность промежутка             : 40  мс. (1,00 видеокадр)
Время предзагрузки промежутка            : 504  мс.

Общее
Полное имя                               : D:\Goryunov.2013.SATRip.KZ\Goryunov.02.2013.SATRip.KZ.avi
Формат                                   : AVI
Формат/Информация                        : Audio Video Interleave
Размер файла                             : 508 Мбайт
Продолжительность                        : 43 м.
Общий поток                              : 1633 Кбит/сек
Программа кодирования                    : VirtualDubMod 1.5.10.2 (build 2540/release)
Библиотека кодирования                   : VirtualDub build 32507/release

Видео
Идентификатор                            : 0
Формат                                   : MPEG-4 Visual
Профиль формата                          : Advanced Simple@L5
Параметр BVOP формата                    : 2
Параметр QPel формата                    : Нет
Параметр GMC формата                     : Без точки перехода
Параметр матрицы формата                 : Default (MPEG)
Идентификатор кодека                     : XVID
Идентификатор кодека/Подсказка           : XviD
Продолжительность                        : 43 м.
Битрейт                                  : 1495 Кбит/сек
Ширина                                   : 720 пикселей
Высота                                   : 448 пикселей
Соотношение сторон                       : 16:10
Частота кадров                           : 25,000 кадров/сек
Цветовое пространство                    : YUV
Субдискретизация насыщенности            : 4:2:0
Битовая глубина                          : 8 бит
Тип развёртки                            : Прогрессивная
Метод сжатия                             : С потерями
Бит/(Пиксели*Кадры)                      : 0.185
Размер потока                            : 465 Мбайт (92%)
Библиотека кодирования                   : XviD 64

Аудио
Идентификатор                            : 1
Формат                                   : MPEG Audio
Версия формата                           : Version 1
Профиль формата                          : Layer 3
Режим                                    : Joint stereo
Идентификатор кодека                     : 55
Идентификатор кодека/Подсказка           : MP3
Продолжительность                        : 43 м.
Вид битрейта                             : Постоянный
Битрейт                                  : 128 Кбит/сек
Каналы                                   : 2 канала
Частота                                  : 48,0 КГц
Метод сжатия                             : С потерями
Размер потока                            : 39,8 Мбайт (8%)
Выравнивание                             : Соединение по промежуткам
Продолжительность промежутка             : 40  мс. (1,00 видеокадр)
Время предзагрузки промежутка            : 504  мс.

Общее
Полное имя                               : D:\Goryunov.2013.SATRip.KZ\Goryunov.03.2013.SATRip.KZ.avi
Формат                                   : AVI
Формат/Информация                        : Audio Video Interleave
Размер файла                             : 505 Мбайт
Продолжительность                        : 43 м.
Общий поток                              : 1633 Кбит/сек
Программа кодирования                    : VirtualDubMod 1.5.10.2 (build 2540/release)
Библиотека кодирования                   : VirtualDub build 32507/release

Видео
Идентификатор                            : 0
Формат                                   : MPEG-4 Visual
Профиль формата                          : Advanced Simple@L5
Параметр BVOP формата                    : 2
Параметр QPel формата                    : Нет
Параметр GMC формата                     : Без точки перехода
Параметр матрицы формата                 : Default (MPEG)
Идентификатор кодека                     : XVID
Идентификатор кодека/Подсказка           : XviD
Продолжительность                        : 43 м.
Битрейт                                  : 1495 Кбит/сек
Ширина                                   : 720 пикселей
Высота                                   : 448 пикселей
Соотношение сторон                       : 16:10
Частота кадров                           : 25,000 кадров/сек
Цветовое пространство                    : YUV
Субдискретизация насыщенности            : 4:2:0
Битовая глубина                          : 8 бит
Тип развёртки                            : Прогрессивная
Метод сжатия                             : С потерями
Бит/(Пиксели*Кадры)                      : 0.185
Размер потока                            : 462 Мбайт (92%)
Библиотека кодирования                   : XviD 64

Аудио
Идентификатор                            : 1
Формат                                   : MPEG Audio
Версия формата                           : Version 1
Профиль формата                          : Layer 3
Режим                                    : Joint stereo
Идентификатор кодека                     : 55
Идентификатор кодека/Подсказка           : MP3
Продолжительность                        : 43 м.
Вид битрейта                             : Постоянный
Битрейт                                  : 128 Кбит/сек
Каналы                                   : 2 канала
Частота                                  : 48,0 КГц
Метод сжатия                             : С потерями
Размер потока                            : 39,6 Мбайт (8%)
Выравнивание                             : Соединение по промежуткам
Продолжительность промежутка             : 40  мс. (1,00 видеокадр)
Время предзагрузки промежутка            : 504  мс.
picpicpicpicpicpic
Для увеличения картинки щелкните мышкой по превью

Этот торрент недоступен для скачивания без регистрации, однако доступен по публичной magnet-ссылке (источники с публичных трекеров). Перед использованием ссылки прочтите, пожалуйста Пользовательское соглашение, а также как можно дольше оставайтесь на раздаче! Для того, чтобы скачать сам торрент-файл (который видит больше источников), а также для того, чтобы поблагодарить релизера, вам необходимо зарегистрироваться. Если регистрироваться лень - вы можете также попробовать скачать релиз по нашим партнерским ссылкам ниже.

[underverse.su].t34751.torrent
Трекер: Зарегистрирован   [ 31.12.2013 19:05 ]  

Статус: проверено (by 90ytr90 at 31.12.2013 19:42)
Поблагодарили: 7 человек
Тип торрента: публичный - доступные источники с открытых трекеров: 
Размер: 18,02 GB (занимает 4,12 DVDR, для записи нужно 5 болванок DVDR/RW)
 
 


Последний раз редактировалось: konopic (31.12.2013 19:04), всего редактировалось 10 раз(а)

konopic Пол:Муж

17-Дек-2013 12:30

добавил 6-8 серии

konopic Пол:Муж

18-Дек-2013 14:07

Добавил до 12 серии

konopic Пол:Муж

19-Дек-2013 14:26

добавил 13-16 серии

alina180 Пол:Муж

21-Дек-2013 07:30

Благодарю.

konopic Пол:Муж

23-Дек-2013 13:51

добавил 17-20 серии

alina180 Пол:Муж

24-Дек-2013 12:07

Благодарю за продолжение. Сериал нравится.

konopic Пол:Муж

24-Дек-2013 12:41

Добавил до 24 серии

kursant Пол:Муж

24-Дек-2013 21:27

:good: Спосибо, :good: :good: :good:

konopic Пол:Муж

25-Дек-2013 13:34

Добавил 25-28 серии

kursant Пол:Муж

26-Дек-2013 08:00

:good: Спосибо, :good: :good: :good:

konopic Пол:Муж

26-Дек-2013 18:21

Финальные серии!!!

Яндекс.Метрика powered by Sphinx


В Н И М А Н И Е
Сайт не распространяет и не хранит электронные версии произведений, а лишь бесплатно и без коммерческой выгоды (не требуя взамен платы,
SMS и т.д.) предоставляет доступ к создаваемому пользователями каталогу ссылок на торрент-файлы, которые содержат только списки хеш-сумм.
Убедительная просьба с жалобами обращаться напрямую к пользователю, разместившему торрент файл.

Вверх