Loading...
Error

Груз / Серии: 1-24 (24) (Александр Якимчук, Вячеслав Лавров) [2013 г., Боевик, криминал, SatRip]

Статистика раздачи
Размер:  12,35 GB   |    Зарегистрирован:  2 года 11 месяцев   |    Скачан:  16 раз
Сидов:  1  |  450 KB/s  ]   Личеров:  0  |  0 KB/s  ]

* - сиды/пиры с внешних источников

   
 
Автор Сообщение

nemos Пол:Муж

15-Дек-2013 16:49

Груз


Год выпуска: 2013
Жанр: Боевик, криминал
Страна: Россия
Режиссер: Александр Якимчук, Вячеслав Лавров
В ролях: Эдуард Флёров, Александр Большаков, Алексей Федотов, Юлия Горшенина, Иван Паршин, Игорь Головин, Сергей Кошонин, Роман Притула, Сергей Шкарбан, Олег Малышев, Денис Кириллов, Антон Хатеев, Алексей Фокин, Антон Пулит, Сергей Носиков, Оксана Скакун, Михаил Соловьев, Павел Колмаков-Лебедев, Павел Юлку, Евгения Алешина, Александр Николаенко, Светлана Цвиченко, Даниил Кокин, Игорь Ключников, Алексей Кашников, Леонид Ворон, Алексей Утеганов, Александр Иванов (IV), Михаил Разумовский
Сюжет фильма:
В рамках федеральной службы организован спецотряд, который должен выполнять самые сложные поручения, связанные с коммуникациями крупных коммерческих структур с государственными. Каждый из фельдъегерских пакетов является предметом охоты конкурирующих сил, а офицеры спецотряда егерей, выполняя долг, обязаны даже ценой своей жизни выполнить поручение. Фельдъегерская группа, набранная из «бывших» - военный переводчик, капитан милиции в отставке, чемпион, выступавший в боях без правил, и недавний референт в крупной коммерческой структуре, нередко бывает подвержена нападениям, зачастую попадает в экстремальные ситуации - горячая точка, лагерный бунт или же захваченный террористами самолет…



Продолжительность: 00:44:21 серия
Формат: AVI
Видео: DivX, 720x416, 1500 kbps
Аудио: русский, MP3 2.0, 128 kbps

Код:

E:\Фильмы (роздача)\Gruz.SATRip\Gruz.24.SATRip.avi
   General
      Complete name : E:\Фильмы (роздача)\Gruz.SATRip\Gruz.24.SATRip.avi
      Format : AVI
      Format/Info : Audio Video Interleave
      File size : 520 MiB
      Duration : 44mn 21s
      Overall bit rate : 1 638 Kbps
      Writing library : VirtualDub build 32842/release
   Video #0
      ID : 0
      Format : MPEG-4 Visual
      Format settings, BVOP : 1
      Format settings, QPel : No
      Format settings, GMC : No warppoints
      Format settings, Matrix : Default (H.263)
      Muxing mode : Packed bitstream
      Codec ID : DX50
      Codec ID/Hint : DivX 5
      Duration : 44mn 21s
      Bit rate : 1 500 Kbps
      Width : 720 pixels
      Height : 416 pixels
      Display aspect ratio : 1.731
      Frame rate : 25.000 fps
      Color space : YUV
      Chroma subsampling : 4:2:0
      Bit depth : 8 bits
      Scan type : Progressive
      Compression mode : Lossy
      Bits/(Pixel*Frame) : 0.200
      Stream size : 476 MiB (92%)
      Writing library : DivX 6.8.5 (UTC 2009-08-20)
   Audio #1
      ID : 1
      Format : MPEG Audio
      Format version : Version 1
      Format profile : Layer 3
      Mode : Joint stereo
      Codec ID : 55
      Codec ID/Hint : MP3
      Duration : 44mn 21s
      Bit rate mode : Constant
      Bit rate : 128 Kbps
      Channel(s) : 2 channels
      Sampling rate : 48.0 KHz
      Compression mode : Lossy
      Stream size : 40.6 MiB (8%)
      Alignment : Split accross interleaves
      Interleave, duration : 40 ms (1.00 video frame)
      Interleave, preload duration : 500 ms
Семпл: http://multi-up.com/932739

picpicpicpicpicpicpicpicpicpicpicpicpicpic
Для увеличения картинки щелкните мышкой по превью

Этот торрент недоступен для скачивания без регистрации, однако доступен по публичной magnet-ссылке (источники с публичных трекеров). Перед использованием ссылки прочтите, пожалуйста Пользовательское соглашение, а также как можно дольше оставайтесь на раздаче! Для того, чтобы скачать сам торрент-файл (который видит больше источников), а также для того, чтобы поблагодарить релизера, вам необходимо зарегистрироваться. Если регистрироваться лень - вы можете также попробовать скачать релиз по нашим партнерским ссылкам ниже.

[underverse.su].t34791.torrent
Трекер: Зарегистрирован   [ 01.01.2014 16:58 ]  

Статус: проверено (by 90ytr90 at 01.01.2014 19:24)
Поблагодарили: 4 человека
Тип торрента: публичный - доступные источники с открытых трекеров: 
Размер: 12,35 GB (занимает 2,82 DVDR, для записи нужно 3 болванки DVDR/RW)
 
 


Последний раз редактировалось: nemos (06.11.2014 09:36), всего редактировалось 5 раз(а)

nemos Пол:Муж

15-Дек-2013 16:57

Мультитрекер. Сидов не видно, но качать можно.

nemos Пол:Муж

22-Дек-2013 17:16

Торрент обновлён! Добавлены серии:13-24

Яндекс.Метрика powered by Sphinx


В Н И М А Н И Е
Сайт не распространяет и не хранит электронные версии произведений, а лишь бесплатно и без коммерческой выгоды (не требуя взамен платы,
SMS и т.д.) предоставляет доступ к создаваемому пользователями каталогу ссылок на торрент-файлы, которые содержат только списки хеш-сумм.
Убедительная просьба с жалобами обращаться напрямую к пользователю, разместившему торрент файл.

Вверх