Loading...
Error

Подпольная империя / Boardwalk Empire / Сезон: 4 / Серии: 1-12 (Тимоти Ван Паттен, Аллен Култер, Джереми Подесва) [2013 г., драма, криминал, HDTVRip] MVO + Original

Статистика раздачи
Размер:  12,53 GB   |    Зарегистрирован:  3 года 6 месяцев   |    Скачан:  39 раз
Сидов:  1  |  0 KB/s  ]   Личеров:  0  |  0 KB/s  ]

* - сиды/пиры с внешних источников

   
 
Автор Сообщение

garry Пол:Муж

13-Дек-2013 22:01

Подпольная империя / Boardwalk Empire


Год выпуска: 2013
Жанр: драма, криминал
Страна: США
Режиссер: Тимоти Ван Паттен, Аллен Култер, Джереми Подесва
В ролях: Стив Бушеми, Майкл Питт, Келли Макдоналд, Майкл Шеннон, Ши Уигхэм, Алекса Палладино, Майкл Стулбарг, Стивен Грэм, Винсент Пьяцца, Джек Хьюстон
Сюжет фильма:
1920 год. Через несколько часов Атлантик-Сити — столица развлечений и порока, как и вся Америка, вступит в эпоху «Сухого закона». Енох «Наки» Томпсон, днем — городской казначей, а ночью — хитроумный гангстер со связями на самом «верху», решает воспользоваться ситуацией и получить баснословные прибыли на подпольной торговле алкоголем. Однако не он один жаждет обогатиться на новом промысле…

Качество видео: HDTVRip

Продолжительность: ~01:00:00
Формат: AVI
Видео: XviD, 720x400, 2085 kbps
Аудио #1: русский, многоголосый закадровый [профессиональный, Amedia], AC3 2.0, 192 kbps
Аудио #2: английский, оригинал, AC3 2.0, 192 kbps

Код:

Полное имя : F:\Сериал\раздача\Podpolnaja.imperija.S04\Podpolnaja.imperija.S04E01.XviD.HDTVRip.avi
Формат : AVI
Формат/Информация : Audio Video Interleave
Размер файла : 1,06 Гбайт
Продолжительность : 1 ч. 0 м.
Общий поток : 2485 Кбит/сек
Программа кодирования : VirtualDubMod 1.5.10.2 (build 2540/release)
Библиотека кодирования : VirtualDubMod build 2540/release

Видео
Идентификатор : 0
Формат : MPEG-4 Visual
Профиль формата : Advanced Simple@L5
Параметр BVOP формата : 1
Параметр QPel формата : Нет
Параметр GMC формата : Без точки перехода
Параметр матрицы формата : Default (MPEG)
Идентификатор кодека : XVID
Идентификатор кодека/Подсказка : XviD
Продолжительность : 1 ч. 0 м.
Битрейт : 2086 Кбит/сек
Ширина : 720 пикс.
Высота : 400 пикс.
Соотношение сторон : 16:9
Частота кадров : 23,976 кадр/сек
Цветовое пространство : YUV
Подвыборка цветности : 4:2:0
Битовая глубина : 8 бит
Тип развёртки : Прогрессивная
Метод сжатия : С потерями
Бит/(Пиксели*Кадры) : 0.302
Размер потока : 908 Мбайт (84%)
Библиотека кодирования : XviD 65

Аудио #1
Идентификатор : 1
Формат : AC-3
Формат/Информация : Audio Coding 3
Расширение режима : CM (complete main)
Идентификатор кодека : 2000
Продолжительность : 1 ч. 0 м.
Вид битрейта : Постоянный
Битрейт : 192 Кбит/сек
Каналы : 2 канала
Расположение каналов : Front: L R
Частота : 48,0 КГц
Битовая глубина : 16 бит
Метод сжатия : С потерями
Размер потока : 83,6 Мбайт (8%)
Выравнивание : Разделение по промежуткам
Продолжительность промежутка : 42 мс. (1,00 видеокадр)
Время предзагрузки промежутка : 500 ms

Аудио #2
Идентификатор : 2
Формат : AC-3
Формат/Информация : Audio Coding 3
Расширение режима : CM (complete main)
Идентификатор кодека : 2000
Продолжительность : 1 ч. 0 м.
Вид битрейта : Постоянный
Битрейт : 192 Кбит/сек
Каналы : 2 канала
Расположение каналов : Front: L R
Частота : 48,0 КГц
Битовая глубина : 16 бит
Метод сжатия : С потерями
Размер потока : 83,6 Мбайт (8%)
Выравнивание : Разделение по промежуткам
Продолжительность промежутка : 42 мс. (1,00 видеокадр)
Время предзагрузки промежутка : 500 ms
Релиз группы:

picpicpic
Для увеличения картинки щелкните мышкой по превью

Этот торрент недоступен для скачивания без регистрации, однако доступен по публичной magnet-ссылке (источники с публичных трекеров). Перед использованием ссылки прочтите, пожалуйста Пользовательское соглашение, а также как можно дольше оставайтесь на раздаче! Для того, чтобы скачать сам торрент-файл (который видит больше источников), а также для того, чтобы поблагодарить релизера, вам необходимо зарегистрироваться. Если регистрироваться лень - вы можете также попробовать скачать релиз по нашим партнерским ссылкам ниже.

[underverse.su].t34168.torrent
Трекер: Зарегистрирован   [ 13.12.2013 22:01 ]  

Статус: проверено (by garry at 13.12.2013 22:02)
Поблагодарили: 3 человека
Тип торрента: публичный - доступные источники с открытых трекеров: 
Размер: 12,53 GB (занимает 2,86 DVDR, для записи нужно 3 болванки DVDR/RW)
 
 
Похожие темы
Форум Тема Автор Торрент Отв. Посл. сооб.
Зарубежные сериалы Подпольная империя / Boardwalk Empire (Сезон 1 / Серии 1-12) (Тимоти Ван Паттен, Аллен Култер, Джереми Подесва) [2010 г., драма, криминал, HDTVRip] garry
5 | 1

0 | 1935

64

12.06.2012 15:58

Зарубежные сериалы Подпольная империя / Boardwalk Empire (Сезон 2 / Серии 1-12) (Тимоти Ван Паттен, Аллен Култер, Джереми Подесва) [2011 г., драма, криминал, HDTVRip] garry
6 | 0

0 | 1752

53

25.06.2012 10:37

Зарубежные сериалы Подпольная империя / Boardwalk Empire / Сезон: 3 / Серии: 1-12 (12) (Тимоти Ван Паттен, Аллен Култер, Джереми Подесва) [2012 г., драма, криминал, WEBDLRip] MVO garry
1 | 0

5 | 5052

38

14.10.2013 16:10

Зарубежные сериалы [BD / Remux / BDRip / WEB-DL / HDTV 1080/720р] Подпольная империя / Boardwalk Empire (1-5 сезон: 1-56 серий из 56) (Тимоти Ван Паттен, Аллен Коултер, Джереми Подесва) [2010-2014 г., Драма, криминал, BDRip 720p] AVO mihis
1 | 3

1 | 482

0

12.04.2017 09:31



Последний раз редактировалось: garry (22.12.2013 11:20), всего редактировалось 1 раз

vitomill 

22-Дек-2013 08:32

какой сезон????уточните. спасибо

garry Пол:Муж

22-Дек-2013 11:24

vitomill
это 4. исправил.

Яндекс.Метрика powered by Sphinx


В Н И М А Н И Е
Сайт не распространяет и не хранит электронные версии произведений, а лишь бесплатно и без коммерческой выгоды (не требуя взамен платы,
SMS и т.д.) предоставляет доступ к создаваемому пользователями каталогу ссылок на торрент-файлы, которые содержат только списки хеш-сумм.
Убедительная просьба с жалобами обращаться напрямую к пользователю, разместившему торрент файл.

Вверх