Loading...
Error

Исчезнувшие / Серии: 1-4 из 4 (Вадим Островский) [2009 г., военный, драма, DVDRip]

Статистика раздачи
Размер:  2,5 GB   |    Зарегистрирован:  2 года 11 месяцев   |    Скачан:  14 раз

Полного источника не было: 5 месяцев 20 дней

Сидов:  0  |  0 KB/s  ]   Личеров:  0  |  0 KB/s  ]

* - сиды/пиры с внешних источников

   
 
Автор Сообщение

konopic Пол:Муж

13-Дек-2013 19:07

Исчезнувшие


Год выпуска: 2009
Жанр: военный, драма
Страна: Россия, ПРО-СИНЕМА ПРОДАКШН
Режиссер: Вадим Островский
В ролях: Кирилл Пирогов, Владимир Толоконников, Николай Иванов, Егор Пазенко, Александр Воробьев, Михаил Трухин, Андрей Феськов, Елена Лядова
Сюжет фильма:
1942 год. Бежавший из плена майор Топорков пробирается в окруженный немцами партизанский лагерь. Майор просит командира отряда дать ему обоз с оружием, чтобы пробиться к концлагерю: заключенные готовят восстание. Командир предупреждает Топоркова - в его отряде есть предатель, снабжающий немцев информацией. Он наверняка попытается уйти в составе группы, сопровождающей обоз. В ряды добровольцев просится молоденький партизан Мошкин, отец которого служил полицаем. После первого привала Мошкин исчезает...

*премьера (РФ) 9 мая 2009


Качество видео: DVDRip

Продолжительность: 4 х ~ 00:48:22
Формат: AVI
Видео: XviD, ~ 1519 Кбит/с, 688x416
Аудио: АС3, 2 ch, 192 Кбит/с

Код:

Исчезнувшие.DVDRip-SVAT\Исчезнувшие.01.DVDRip-SVAT.avi
Format : AVI
Format/Info : Audio Video Interleave
File size : 641 MiB
Duration : 52mn 4s
Overall bit rate : 1 721 Kbps
Writing application : VirtualDubMod 1.5.10.3 | www.virtualdub-fr.org || (build 2550/release)
Writing library : VirtualDubMod build 2550/release
Video
ID : 0
Format : MPEG-4 Visual
Format profile : Advanced Simple@L5
Format settings, BVOP : 2
Format settings, QPel : No
Format settings, GMC : No warppoints
Format settings, Matrix : Custom
Codec ID : DX50
Codec ID/Hint : DivX 5
Duration : 52mn 4s
Bit rate : 1 519 Kbps
Width : 688 pixels
Height : 416 pixels
Display aspect ratio : 1.654
Frame rate : 25.000 fps
Color space : YUV
Chroma subsampling : 4:2:0
Bit depth : 8 bits
Scan type : Progressive
Compression mode : Lossy
Bits/(Pixel*Frame) : 0.212
Stream size : 566 MiB (88%)
Writing library : XviD 1.2.1 (UTC 2008-12-04)
Audio
ID : 1
Format : AC-3
Format/Info : Audio Coding 3
Mode extension : CM (complete main)
Codec ID : 2000
Duration : 52mn 4s
Bit rate mode : Constant
Bit rate : 192 Kbps
Channel(s) : 2 channels
Channel positions : Front: L R
Sampling rate : 48.0 KHz
Bit depth : 16 bits
Compression mode : Lossy
Stream size : 71.5 MiB (11%)
Alignment : Split accross interleaves
Interleave, duration : 40 ms (1.00 video frame)
Interleave, preload duration : 500 ms
picpicpicpic
Для увеличения картинки щелкните мышкой по превью

Этот торрент недоступен для скачивания без регистрации, однако доступен по публичной magnet-ссылке (источники с публичных трекеров). Перед использованием ссылки прочтите, пожалуйста Пользовательское соглашение, а также как можно дольше оставайтесь на раздаче! Для того, чтобы скачать сам торрент-файл (который видит больше источников), а также для того, чтобы поблагодарить релизера, вам необходимо зарегистрироваться. Если регистрироваться лень - вы можете также попробовать скачать релиз по нашим партнерским ссылкам ниже.

[underverse.su].t34164.torrent
Трекер: Зарегистрирован   [ 13.12.2013 19:07 ]  

Статус: проверено (by garry at 13.12.2013 21:25)
Поблагодарили: 1 человек
Тип торрента: публичный - доступные источники с открытых трекеров: 
Размер: 2,5 GB (занимает 0,57 DVDR, для записи нужно 1 болванка DVDR/RW)
 
 

Яндекс.Метрика powered by Sphinx


В Н И М А Н И Е
Сайт не распространяет и не хранит электронные версии произведений, а лишь бесплатно и без коммерческой выгоды (не требуя взамен платы,
SMS и т.д.) предоставляет доступ к создаваемому пользователями каталогу ссылок на торрент-файлы, которые содержат только списки хеш-сумм.
Убедительная просьба с жалобами обращаться напрямую к пользователю, разместившему торрент файл.

Вверх