Loading...
Error

(Шансон) Братья Жемчужные - Антология русского шансона (2CD) (2002) [FLAC (Tracks+.CUE), Lossless]

Статистика раздачи
Размер:  973 MB   |    Зарегистрирован:  4 года 10 месяцев   |    Скачан:  17 раз

Полного источника не было: 1 месяц 30 дней

Сидов:  0  |  0 KB/s  ]   Личеров:  0  |  0 KB/s  ]

* - сиды/пиры с внешних источников

   
 
Автор Сообщение

Бишеп Пол:Муж

13-Дек-2013 12:23

Братья Жемчужные - Антология русского шансона

Жанр: Шансон
Год выпуска: 2002
Производитель диска: S.T.R Records ZSS CD 081-0902/1/2/02
Аудиокодек: FLAC
Тип рипа: Tracks+.CUE
Битрейт аудио: Lossless
Продолжительность: 02:39:09
Треклист:
Треклист:
01. Постой, паровоз
02. Госпожа, разлука
03. Крокодил Гена
04. Мужичок из Тольятти
05. На саночках
06. Зачем?
07. Ах, Одесса
08. Утомленное солнце
09. Чешу ногу
10. Окурочек
11. Раз пошли на дело
12. Я милого узнаю по походке
13. Березовый сок
14. Виновата ли я
15. Чубчик
16. Мишка, Мишка
17. Неудачное свидание
18. Мамаши спят
19. Мадонна
20. Степка
21. Баллада о нищете
22. Расцвела сирень
23. 8 лет на казенной постели
24. Таварищ Парамонова
25. Налетчики
26. Маслицо

Exact Audio Copy V1.0 beta 3 from 29. August 2011

Отчёт EAC об извлечении, выполненном 31. декабря 2011, 20:24

Братья Жемчужные / Антология русского шансона

Дисковод: PIONEER DVD-RW DVR-118L Adapter: 0 ID: 0

Режим чтения : Достоверность
Использование точного потока : Да
Отключение кэша аудио : Да
Использование указателей C2 : Нет

Коррекция смещения при чтении : 6
Способность читать области Lead-in и Lead-out : Нет
Заполнение пропущенных сэмплов тишиной : Да
Удаление блоков с тишиной в начале и конце : Нет
При вычислениях CRC использовались нулевые сэмплы : Да
Интерфейс : Встроенный Win32-интерфейс для Win NT/2000
Обработка зазоров : Не обнаружено, добавлено к предыдущему треку

Выходной формат : Пользовательский кодировщик
Выбранный битрейт : 1024 kBit/s
Качество : Высокий
Добавление ID3-тега : Нет
Утилита сжатия : C:\Program Files\FLAC\flac.exe
Дополнительные параметры : -V -8 -T "Date=%year%" -T "Genre=%genre%" %source%

TOC извлечённого CD

Трек | Старт | Длительность | Начальный сектор | Конечный сектор
---------------------------------------------------------------------
1 | 0:00.00 | 1:45.26 | 0 | 7900
2 | 1:45.26 | 3:01.52 | 7901 | 21527
3 | 4:47.03 | 4:36.66 | 21528 | 42293
4 | 9:23.69 | 6:37.24 | 42294 | 72092
5 | 16:01.18 | 2:54.03 | 72093 | 85145
6 | 18:55.21 | 3:44.66 | 85146 | 102011
7 | 22:40.12 | 1:46.14 | 102012 | 109975
8 | 24:26.26 | 2:27.43 | 109976 | 121043
9 | 26:53.69 | 1:38.21 | 121044 | 128414
10 | 28:32.15 | 3:40.47 | 128415 | 144961
11 | 32:12.62 | 3:07.00 | 144962 | 158986
12 | 35:19.62 | 2:18.32 | 158987 | 169368
13 | 37:38.19 | 2:43.42 | 169369 | 181635
14 | 40:21.61 | 2:57.65 | 181636 | 194975
15 | 43:19.51 | 2:25.04 | 194976 | 205854
16 | 45:44.55 | 3:47.66 | 205855 | 222945
17 | 49:32.46 | 2:47.20 | 222946 | 235490
18 | 52:19.66 | 3:13.47 | 235491 | 250012
19 | 55:33.38 | 2:09.33 | 250013 | 259720
20 | 57:42.71 | 2:04.29 | 259721 | 269049
21 | 59:47.25 | 2:24.39 | 269050 | 279888
22 | 62:11.64 | 1:48.08 | 279889 | 287996
23 | 63:59.72 | 3:47.19 | 287997 | 305040
24 | 67:47.16 | 5:32.24 | 305041 | 329964
25 | 73:19.40 | 2:47.54 | 329965 | 342543
26 | 76:07.19 | 3:23.72 | 342544 | 357840

Трек 1

Имя файла J:\Раздачи 3\Братья Жемчужные _ 2 CD_ 2002\Диск 1\01 Постой,паровоз.wav

Пиковый уровень 98.8 %
Скорость извлечения 1.0 X
Качество трека 100.0 %
CRC теста 96B9018F
CRC копии 96B9018F
Трек не обнаружен в базе AccurateRip
Копирование... OK

Трек 2

Имя файла J:\Раздачи 3\Братья Жемчужные _ 2 CD_ 2002\Диск 1\02 Госпожа,разлука.wav

Пиковый уровень 98.8 %
Скорость извлечения 1.0 X
Качество трека 100.0 %
CRC теста DF83B0AE
CRC копии DF83B0AE
Трек не обнаружен в базе AccurateRip
Копирование... OK

Трек 3

Имя файла J:\Раздачи 3\Братья Жемчужные _ 2 CD_ 2002\Диск 1\03 Крокодил Гена.wav

Пиковый уровень 98.8 %
Скорость извлечения 1.1 X
Качество трека 100.0 %
CRC теста C6F6E19A
CRC копии C6F6E19A
Трек не обнаружен в базе AccurateRip
Копирование... OK

Трек 4

Имя файла J:\Раздачи 3\Братья Жемчужные _ 2 CD_ 2002\Диск 1\04 Мужичок из Тольятти.wav

Пиковый уровень 99.8 %
Скорость извлечения 1.0 X
Качество трека 100.0 %
CRC теста FC36CA2C
CRC копии FC36CA2C
Трек не обнаружен в базе AccurateRip
Копирование завершено

Трек 5

Имя файла J:\Раздачи 3\Братья Жемчужные _ 2 CD_ 2002\Диск 1\05 На саночках.wav

Пиковый уровень 99.8 %
Скорость извлечения 1.0 X
Качество трека 100.0 %
CRC теста 57C4A2FA
CRC копии 57C4A2FA
Трек не обнаружен в базе AccurateRip
Копирование... OK

Трек 6

Имя файла J:\Раздачи 3\Братья Жемчужные _ 2 CD_ 2002\Диск 1\06 Зачем.wav

Пиковый уровень 98.8 %
Скорость извлечения 1.0 X
Качество трека 100.0 %
CRC теста DA816A98
CRC копии DA816A98
Трек не обнаружен в базе AccurateRip
Копирование... OK

Трек 7

Имя файла J:\Раздачи 3\Братья Жемчужные _ 2 CD_ 2002\Диск 1\07 Ах,Одесса.wav

Пиковый уровень 98.8 %
Скорость извлечения 1.0 X
Качество трека 100.0 %
CRC теста A086DBB8
CRC копии A086DBB8
Трек не обнаружен в базе AccurateRip
Копирование... OK

Трек 8

Имя файла J:\Раздачи 3\Братья Жемчужные _ 2 CD_ 2002\Диск 1\08 Утомленное солнце.wav

Пиковый уровень 98.8 %
Скорость извлечения 1.0 X
Качество трека 100.0 %
CRC теста 3EA65E27
CRC копии 3EA65E27
Трек не обнаружен в базе AccurateRip
Копирование... OK

Трек 9

Имя файла J:\Раздачи 3\Братья Жемчужные _ 2 CD_ 2002\Диск 1\09 Чешу ногу.wav

Пиковый уровень 96.5 %
Скорость извлечения 1.0 X
Качество трека 100.0 %
CRC теста A1F3222D
CRC копии A1F3222D
Трек не обнаружен в базе AccurateRip
Копирование... OK

Трек 10

Имя файла J:\Раздачи 3\Братья Жемчужные _ 2 CD_ 2002\Диск 1\10 Окурочек.wav

Пиковый уровень 98.8 %
Скорость извлечения 1.0 X
Качество трека 100.0 %
CRC теста 517A68E2
CRC копии 517A68E2
Трек не обнаружен в базе AccurateRip
Копирование... OK

Трек 11

Имя файла J:\Раздачи 3\Братья Жемчужные _ 2 CD_ 2002\Диск 1\11 Раз пошли на дело.wav

Пиковый уровень 96.5 %
Скорость извлечения 1.0 X
Качество трека 100.0 %
CRC теста 65AAD597
CRC копии 65AAD597
Трек не обнаружен в базе AccurateRip
Копирование завершено

Трек 12

Имя файла J:\Раздачи 3\Братья Жемчужные _ 2 CD_ 2002\Диск 1\12 Я милого узнаю по походке.wav

Пиковый уровень 98.8 %
Скорость извлечения 1.0 X
Качество трека 100.0 %
CRC теста 16F6BE10
CRC копии 16F6BE10
Трек не обнаружен в базе AccurateRip
Копирование... OK

Трек 13

Имя файла J:\Раздачи 3\Братья Жемчужные _ 2 CD_ 2002\Диск 1\13 Березовый сок.wav

Пиковый уровень 96.5 %
Скорость извлечения 1.0 X
Качество трека 100.0 %
CRC теста EA841292
CRC копии EA841292
Трек не обнаружен в базе AccurateRip
Копирование... OK

Трек 14

Имя файла J:\Раздачи 3\Братья Жемчужные _ 2 CD_ 2002\Диск 1\14 Виновата ли Я.wav

Пиковый уровень 98.8 %
Скорость извлечения 1.1 X
Качество трека 100.0 %
CRC теста 22867EFF
CRC копии 22867EFF
Трек не обнаружен в базе AccurateRip
Копирование... OK

Трек 15

Имя файла J:\Раздачи 3\Братья Жемчужные _ 2 CD_ 2002\Диск 1\15 Чубчик.wav

Пиковый уровень 98.8 %
Скорость извлечения 1.0 X
Качество трека 100.0 %
CRC теста 89D9A109
CRC копии 89D9A109
Трек не обнаружен в базе AccurateRip
Копирование... OK

Трек 16

Имя файла J:\Раздачи 3\Братья Жемчужные _ 2 CD_ 2002\Диск 1\16 Мишка,Мишка.wav

Пиковый уровень 98.8 %
Скорость извлечения 1.2 X
Качество трека 100.0 %
CRC теста 4CEF22A7
CRC копии 4CEF22A7
Трек не обнаружен в базе AccurateRip
Копирование... OK

Трек 17

Имя файла J:\Раздачи 3\Братья Жемчужные _ 2 CD_ 2002\Диск 1\17 Неудачное свидание.wav

Пиковый уровень 98.8 %
Скорость извлечения 1.1 X
Качество трека 100.0 %
CRC теста D019BFD9
CRC копии D019BFD9
Трек не обнаружен в базе AccurateRip
Копирование... OK

Трек 18

Имя файла J:\Раздачи 3\Братья Жемчужные _ 2 CD_ 2002\Диск 1\18 Мамаши спят.wav

Пиковый уровень 99.8 %
Скорость извлечения 1.2 X
Качество трека 100.0 %
CRC теста 3241C2BC
CRC копии 3241C2BC
Трек не обнаружен в базе AccurateRip
Копирование... OK

Трек 19

Имя файла J:\Раздачи 3\Братья Жемчужные _ 2 CD_ 2002\Диск 1\19 Мадонна.wav

Пиковый уровень 98.8 %
Скорость извлечения 1.0 X
Качество трека 100.0 %
CRC теста 28360799
CRC копии 28360799
Трек не обнаружен в базе AccurateRip
Копирование... OK

Трек 20

Имя файла J:\Раздачи 3\Братья Жемчужные _ 2 CD_ 2002\Диск 1\20 Степка.wav

Пиковый уровень 98.8 %
Скорость извлечения 1.0 X
Качество трека 100.0 %
CRC теста 51209050
CRC копии 51209050
Трек не обнаружен в базе AccurateRip
Копирование... OK

Трек 21

Имя файла J:\Раздачи 3\Братья Жемчужные _ 2 CD_ 2002\Диск 1\21 Баллада о нищете.wav

Пиковый уровень 98.8 %
Скорость извлечения 1.0 X
Качество трека 100.0 %
CRC теста 381DEE3A
CRC копии 381DEE3A
Трек не обнаружен в базе AccurateRip
Копирование... OK

Трек 22

Имя файла J:\Раздачи 3\Братья Жемчужные _ 2 CD_ 2002\Диск 1\22 Расцвела сирень.wav

Пиковый уровень 98.8 %
Скорость извлечения 1.0 X
Качество трека 100.0 %
CRC теста 1EBF1CAF
CRC копии 1EBF1CAF
Трек не обнаружен в базе AccurateRip
Копирование завершено

Трек 23

Имя файла J:\Раздачи 3\Братья Жемчужные _ 2 CD_ 2002\Диск 1\23 8 лет на казенной постели.wav

Пиковый уровень 98.8 %
Скорость извлечения 1.0 X
Качество трека 100.0 %
CRC теста 5F314295
CRC копии 5F314295
Трек не обнаружен в базе AccurateRip
Копирование... OK

Трек 24

Имя файла J:\Раздачи 3\Братья Жемчужные _ 2 CD_ 2002\Диск 1\24 Таварищ Парамонова.wav

Пиковый уровень 98.8 %
Скорость извлечения 1.0 X
Качество трека 100.0 %
CRC теста 8E90164F
CRC копии 8E90164F
Трек не обнаружен в базе AccurateRip
Копирование... OK

Трек 25

Имя файла J:\Раздачи 3\Братья Жемчужные _ 2 CD_ 2002\Диск 1\25 Налетчики.wav

Пиковый уровень 96.5 %
Скорость извлечения 1.0 X
Качество трека 100.0 %
CRC теста 376693E7
CRC копии 376693E7
Трек не обнаружен в базе AccurateRip
Копирование... OK

Трек 26

Имя файла J:\Раздачи 3\Братья Жемчужные _ 2 CD_ 2002\Диск 1\26 Маслицо.wav

Пиковый уровень 98.8 %
Скорость извлечения 1.0 X
Качество трека 100.0 %
CRC теста 7221D0E4
CRC копии 7221D0E4
Трек не обнаружен в базе AccurateRip
Копирование завершено

Ни одного трека нет в базе AccurateRip

Ошибок не произошло

Конец отчёта
REM GENRE Chanson
REM DATE 2002
REM DISCID 7812A31A
REM COMMENT "ExactAudioCopy v1.0b3"
PERFORMER "Братья Жемчужные"
TITLE "Антология русского шансона"
FILE "01 Постой,паровоз.flac" WAVE
TRACK 01 AUDIO
TITLE "Постой,паровоз"
PERFORMER "Братья Жемчужные"
INDEX 01 00:00:00
FILE "02 Госпожа,разлука.flac" WAVE
TRACK 02 AUDIO
TITLE "Госпожа,разлука"
PERFORMER "Братья Жемчужные"
INDEX 01 00:00:00
FILE "03 Крокодил Гена.flac" WAVE
TRACK 03 AUDIO
TITLE "Крокодил Гена"
PERFORMER "Братья Жемчужные"
INDEX 01 00:00:00
FILE "04 Мужичок из Тольятти.flac" WAVE
TRACK 04 AUDIO
TITLE "Мужичок из Тольятти"
PERFORMER "Братья Жемчужные"
INDEX 01 00:00:00
FILE "05 На саночках.flac" WAVE
TRACK 05 AUDIO
TITLE "На саночках"
PERFORMER "Братья Жемчужные"
INDEX 01 00:00:00
FILE "06 Зачем.flac" WAVE
TRACK 06 AUDIO
TITLE "Зачем?"
PERFORMER "Братья Жемчужные"
INDEX 01 00:00:00
FILE "07 Ах,Одесса.flac" WAVE
TRACK 07 AUDIO
TITLE "Ах,Одесса"
PERFORMER "Братья Жемчужные"
INDEX 01 00:00:00
FILE "08 Утомленное солнце.flac" WAVE
TRACK 08 AUDIO
TITLE "Утомленное солнце"
PERFORMER "Братья Жемчужные"
INDEX 01 00:00:00
FILE "09 Чешу ногу.flac" WAVE
TRACK 09 AUDIO
TITLE "Чешу ногу"
PERFORMER "Братья Жемчужные"
INDEX 01 00:00:00
FILE "10 Окурочек.flac" WAVE
TRACK 10 AUDIO
TITLE "Окурочек"
PERFORMER "Братья Жемчужные"
INDEX 01 00:00:00
FILE "11 Раз пошли на дело.flac" WAVE
TRACK 11 AUDIO
TITLE "Раз пошли на дело"
PERFORMER "Братья Жемчужные"
INDEX 01 00:00:00
FILE "12 Я милого узнаю по походке.flac" WAVE
TRACK 12 AUDIO
TITLE "Я милого узнаю по походке"
PERFORMER "Братья Жемчужные"
INDEX 01 00:00:00
FILE "13 Березовый сок.flac" WAVE
TRACK 13 AUDIO
TITLE "Березовый сок"
PERFORMER "Братья Жемчужные"
INDEX 01 00:00:00
FILE "14 Виновата ли Я.flac" WAVE
TRACK 14 AUDIO
TITLE "Виновата ли Я"
PERFORMER "Братья Жемчужные"
INDEX 01 00:00:00
FILE "15 Чубчик.flac" WAVE
TRACK 15 AUDIO
TITLE "Чубчик"
PERFORMER "Братья Жемчужные"
INDEX 01 00:00:00
FILE "16 Мишка,Мишка.flac" WAVE
TRACK 16 AUDIO
TITLE "Мишка,Мишка"
PERFORMER "Братья Жемчужные"
INDEX 01 00:00:00
FILE "17 Неудачное свидание.flac" WAVE
TRACK 17 AUDIO
TITLE "Неудачное свидание"
PERFORMER "Братья Жемчужные"
INDEX 01 00:00:00
FILE "18 Мамаши спят.flac" WAVE
TRACK 18 AUDIO
TITLE "Мамаши спят"
PERFORMER "Братья Жемчужные"
INDEX 01 00:00:00
FILE "19 Мадонна.flac" WAVE
TRACK 19 AUDIO
TITLE "Мадонна"
PERFORMER "Братья Жемчужные"
INDEX 01 00:00:00
FILE "20 Степка.flac" WAVE
TRACK 20 AUDIO
TITLE "Степка"
PERFORMER "Братья Жемчужные"
INDEX 01 00:00:00
FILE "21 Баллада о нищете.flac" WAVE
TRACK 21 AUDIO
TITLE "Баллада о нищете"
PERFORMER "Братья Жемчужные"
INDEX 01 00:00:00
FILE "22 Расцвела сирень.flac" WAVE
TRACK 22 AUDIO
TITLE "Расцвела сирень"
PERFORMER "Братья Жемчужные"
INDEX 01 00:00:00
FILE "23 8 лет на казенной постели.flac" WAVE
TRACK 23 AUDIO
TITLE "8 лет на казенной постели"
PERFORMER "Братья Жемчужные"
INDEX 01 00:00:00
FILE "24 Таварищ Парамонова.flac" WAVE
TRACK 24 AUDIO
TITLE "Таварищ Парамонова"
PERFORMER "Братья Жемчужные"
INDEX 01 00:00:00
FILE "25 Налетчики.flac" WAVE
TRACK 25 AUDIO
TITLE "Налетчики"
PERFORMER "Братья Жемчужные"
INDEX 01 00:00:00
FILE "26 Маслицо.flac" WAVE
TRACK 26 AUDIO
TITLE "Маслицо"
PERFORMER "Братья Жемчужные"
INDEX 01 00:00:00
-----------------------

DON'T MODIFY THIS FILE

-----------------------

PERFORMER: auCDtect Task Manager, ver. 1.5.1RC6 build 1.5.1.7
Copyright (c) 2008-2010 y-soft. All rights reserved
http://y-soft.org

ANALYZER: auCDtect: CD records authenticity detector, version 0.8.2
Copyright (c) 2004 Oleg Berngardt. All rights reserved.
Copyright (c) 2004 Alexander Djourik. All rights reserved.

FILE: 26 Маслицо.flac
Size: 17229502 Hash: 48116B247ED03B521F903DA88558B703 Accuracy: -m8
Conclusion: CDDA 43%
Signature: 19158A4DDF688755F87DBE2EA2EBF3511EC58F4F
FILE: 25 Налетчики.flac
Size: 20565946 Hash: 4AE9F51C3541085102520EB31CB0D844 Accuracy: -m8
Conclusion: CDDA 100%
Signature: 44488D32DB82EF1877CD8840CE3C4067440C2C6D
FILE: 24 Таварищ Парамонова.flac
Size: 34761733 Hash: 0130C7B130455142B1C6C9D2BD3B57E0 Accuracy: -m8
Conclusion: CDDA 100%
Signature: CAAD5CD4B51C8E829A689644C6C53C1D49AE4A08
FILE: 23 8 лет на казенной постели.flac
Size: 19625586 Hash: 6822774CA1078DCEABC37BD2013370AC Accuracy: -m8
Conclusion: CDDA 100%
Signature: 46E4734B5E723CA5C690124C7624312D575811E7
FILE: 22 Расцвела сирень.flac
Size: 10760787 Hash: 8ACED639FFCCE6991A1D882CDF8046AB Accuracy: -m8
Conclusion: CDDA 100%
Signature: 0B4F077410A5136D3910481B1146CEAE2507B406
FILE: 21 Баллада о нищете.flac
Size: 14142164 Hash: 8EE441D8F6A03FD5F697420DB46DA084 Accuracy: -m8
Conclusion: CDDA 100%
Signature: 4370DDEB16899681CDF32B9A9FE597307741F38F
FILE: 20 Степка.flac
Size: 11361146 Hash: 2CDBBCD0B5897BEDE7F67620E7CDADE7 Accuracy: -m8
Conclusion: CDDA 99%
Signature: F18F1D94BBD9FEE2A35358A25ABDE3F67D6E09FA
FILE: 19 Мадонна.flac
Size: 12990807 Hash: 5C95E34871CD0CA2E53461E69E6BD8CF Accuracy: -m8
Conclusion: CDDA 100%
Signature: ADAAF93EF4835B6D080787F9B2B75906B99D74F2
FILE: 18 Мамаши спят.flac
Size: 19291187 Hash: 32285124A13C1FA0C57BFF433B7BD9A5 Accuracy: -m8
Conclusion: CDDA 100%
Signature: DDCFF79F1C7550A4842CAFDC7CE9B6A1365DB90F
FILE: 17 Неудачное свидание.flac
Size: 16818137 Hash: F7E13F0736E5B781562901C4598DCBD6 Accuracy: -m8
Conclusion: CDDA 100%
Signature: 8762A53318C7961F64CE7989763A49F75E1BF603
FILE: 16 Мишка,Мишка.flac
Size: 23142709 Hash: 8F885A7BBD8ED372A0DCEEC89C15F1F9 Accuracy: -m8
Conclusion: CDDA 100%
Signature: 5A61ED848BA38F807F9D9602F8E26FFCC7FA1D23
FILE: 15 Чубчик.flac
Size: 15314570 Hash: D90CADD25B994475373425ADE4ACB5B9 Accuracy: -m8
Conclusion: CDDA 100%
Signature: FF80A272244FE0D15C9B4ED257CE431F7DD3075C
FILE: 14 Виновата ли Я.flac
Size: 15792936 Hash: A00BC82074C0A609E491F6A1B048B03A Accuracy: -m8
Conclusion: CDDA 100%
Signature: 1C583574F3140F82901A7A1D43498A6F08B1765A
FILE: 13 Березовый сок.flac
Size: 18051367 Hash: C42839939CAFB6A9776249ADC9BABA97 Accuracy: -m8
Conclusion: CDDA 100%
Signature: 5C9CC09E858AAF4A7B24E62AE24F1AEEB0AB7118
FILE: 12 Я милого узнаю по походке.flac
Size: 15507135 Hash: 03228719ADCE23BCEED5B29936547C44 Accuracy: -m8
Conclusion: CDDA 100%
Signature: EAB63ABDB29D5F0B466F9F6BDBFE164971224B76
FILE: 11 Раз пошли на дело.flac
Size: 21075728 Hash: 03EB06EC32C204BE73A6971ED8EFABEF Accuracy: -m8
Conclusion: CDDA 100%
Signature: B7BF01F5DAA940CAB6F24D7C99A9FAAF5ACFF54A
FILE: 10 Окурочек.flac
Size: 20616555 Hash: 3D741F3D760AD0E84F6D8540011F4282 Accuracy: -m8
Conclusion: CDDA 100%
Signature: 9898D2F41B60A3BA53589D49713A61FD3DC5F521
FILE: 09 Чешу ногу.flac
Size: 10871081 Hash: 81CA318A74B1832C6E55F2DB92444156 Accuracy: -m8
Conclusion: CDDA 100%
Signature: FD43031C8823B0B773D698952F3F0720842CE015
FILE: 08 Утомленное солнце.flac
Size: 16675286 Hash: 14E867A4B4D6BACD47F585399B8C4121 Accuracy: -m8
Conclusion: CDDA 100%
Signature: CDD9B569099ED9C982664D2C05642CB3D67788F2
FILE: 07 Ах,Одесса.flac
Size: 8386920 Hash: BD19935EAA1D7E1556E24185C91E4041 Accuracy: -m8
Conclusion: CDDA 100%
Signature: F4D6F89CFEF7DC5875A4CF7247FA7B13636DA991
FILE: 06 Зачем.flac
Size: 18876166 Hash: 00A8CD64806B0FD297D9436BEB92D14F Accuracy: -m8
Conclusion: CDDA 100%
Signature: 2C25969084F3997825293714D057E414CB98F2C7
FILE: 05 На саночках.flac
Size: 15716818 Hash: 75A599AD610A78C4A6B732ECC2E4421C Accuracy: -m8
Conclusion: CDDA 100%
Signature: E330B70800B8CB14E52A4D2AA749C4EEC01F9626
FILE: 04 Мужичок из Тольятти.flac
Size: 40049047 Hash: 07F9079F18D2365AE344233733A0D988 Accuracy: -m8
Conclusion: CDDA 100%
Signature: AD144A285D8AD272119EA9A7008826CBCEA61736
FILE: 03 Крокодил Гена.flac
Size: 31121880 Hash: 5283B6F52B5AB124A386C085BB7F7BF9 Accuracy: -m8
Conclusion: CDDA 100%
Signature: 4B804EF2576057AF3A73DD054C522F7759EB0F72
FILE: 02 Госпожа,разлука.flac
Size: 20302069 Hash: 290BDCE59956DBA5DB33DBD9AD408671 Accuracy: -m8
Conclusion: CDDA 100%
Signature: 2DC118F2FAEB382A7D319E729BD9468CFE808F28
FILE: 01 Постой,паровоз.flac
Size: 11690453 Hash: 9ABD8E6567D9AFB9E153DFF9414611E9 Accuracy: -m8
Conclusion: CDDA 100%
Signature: 059B3EF5C14B3EEA13A9762C4D213BC10AB53223
Треклист:
01. На краю пропасти стою
02. Ты знаешь, мать?
03. Поспели вишни
04. Увяли розы
05. А ты - хоть удавись
06. Я родом из Одессы
07. Серенька-пролетарий
08. Ухарь-купец
09. Отметка на стакане
10. Люблю цыгана Яна
11. Несчастная девчонка
12. Рыжая
13. Журавли
14. Людоедочка
15. Черная роза
16. Василёчки
17. Песня шофера-бывшего семинариста
18. Чара
19. Первая любовь
20. Метелки
21. Мама,я жулика люблю
22. Губит людей не пиво
23. Шарабан
24. Турок
25. Батальонный разведчик

Exact Audio Copy V1.0 beta 3 from 29. August 2011

Отчёт EAC об извлечении, выполненном 31. декабря 2011, 13:37

Братья Жемчужные / Антология русского шансона

Дисковод: PIONEER DVD-RW DVR-118L Adapter: 0 ID: 0

Режим чтения : Достоверность
Использование точного потока : Да
Отключение кэша аудио : Да
Использование указателей C2 : Нет

Коррекция смещения при чтении : 6
Способность читать области Lead-in и Lead-out : Нет
Заполнение пропущенных сэмплов тишиной : Да
Удаление блоков с тишиной в начале и конце : Нет
При вычислениях CRC использовались нулевые сэмплы : Да
Интерфейс : Встроенный Win32-интерфейс для Win NT/2000
Обработка зазоров : Не обнаружено, добавлено к предыдущему треку

Выходной формат : Пользовательский кодировщик
Выбранный битрейт : 1024 kBit/s
Качество : Высокий
Добавление ID3-тега : Нет
Утилита сжатия : C:\Program Files\FLAC\flac.exe
Дополнительные параметры : -V -8 -T "Date=%year%" -T "Genre=%genre%" %source%

TOC извлечённого CD

Трек | Старт | Длительность | Начальный сектор | Конечный сектор
---------------------------------------------------------------------
1 | 0:00.00 | 2:15.03 | 0 | 10127
2 | 2:15.03 | 2:12.10 | 10128 | 20037
3 | 4:27.13 | 2:05.28 | 20038 | 29440
4 | 6:32.41 | 2:12.21 | 29441 | 39361
5 | 8:44.62 | 1:56.28 | 39362 | 48089
6 | 10:41.15 | 2:46.47 | 48090 | 60586
7 | 13:27.62 | 3:06.20 | 60587 | 74556
8 | 16:34.07 | 1:57.48 | 74557 | 83379
9 | 18:31.55 | 3:37.27 | 83380 | 99681
10 | 22:09.07 | 3:15.06 | 99682 | 114312
11 | 25:24.13 | 2:53.59 | 114313 | 127346
12 | 28:17.72 | 3:06.12 | 127347 | 141308
13 | 31:24.09 | 3:50.12 | 141309 | 158570
14 | 35:14.21 | 3:04.37 | 158571 | 172407
15 | 38:18.58 | 4:07.59 | 172408 | 190991
16 | 42:26.42 | 4:12.48 | 190992 | 209939
17 | 46:39.15 | 3:24.65 | 209940 | 225304
18 | 50:04.05 | 2:51.34 | 225305 | 238163
19 | 52:55.39 | 3:03.37 | 238164 | 251925
20 | 55:59.01 | 2:25.09 | 251926 | 262809
21 | 58:24.10 | 2:35.68 | 262810 | 274502
22 | 61:00.03 | 3:54.69 | 274503 | 292121
23 | 64:54.72 | 4:52.10 | 292122 | 314031
24 | 69:47.07 | 4:16.17 | 314032 | 333248
25 | 74:03.24 | 5:35.22 | 333249 | 358395

Трек 1

Имя файла J:\Раздачи 3\Братья Жемчужные _ 2 CD_ 2002\Диск 2\01 На краю пропасти стою.wav

Пиковый уровень 96.5 %
Скорость извлечения 1.0 X
Качество трека 100.0 %
CRC теста CE83D9BE
CRC копии CE83D9BE
Трек не обнаружен в базе AccurateRip
Копирование... OK

Трек 2

Имя файла J:\Раздачи 3\Братья Жемчужные _ 2 CD_ 2002\Диск 2\02 Ты знаешь, мать.wav

Пиковый уровень 96.5 %
Скорость извлечения 0.9 X
Качество трека 99.9 %
CRC теста A5EA1072
CRC копии A5EA1072
Трек не обнаружен в базе AccurateRip
Копирование... OK

Трек 3

Имя файла J:\Раздачи 3\Братья Жемчужные _ 2 CD_ 2002\Диск 2\03 Поспели вишни.wav

Пиковый уровень 96.5 %
Скорость извлечения 1.1 X
Качество трека 100.0 %
CRC теста 48C457C8
CRC копии 48C457C8
Трек не обнаружен в базе AccurateRip
Копирование... OK

Трек 4

Имя файла J:\Раздачи 3\Братья Жемчужные _ 2 CD_ 2002\Диск 2\04 Увяли розы.wav

Пиковый уровень 96.5 %
Скорость извлечения 1.2 X
Качество трека 100.0 %
CRC теста 0060A535
CRC копии 0060A535
Трек не обнаружен в базе AccurateRip
Копирование... OK

Трек 5

Имя файла J:\Раздачи 3\Братья Жемчужные _ 2 CD_ 2002\Диск 2\05 А ты - хоть удавись.wav

Пиковый уровень 96.5 %
Скорость извлечения 1.2 X
Качество трека 100.0 %
CRC теста CFAFC73C
CRC копии CFAFC73C
Трек не обнаружен в базе AccurateRip
Копирование... OK

Трек 6

Имя файла J:\Раздачи 3\Братья Жемчужные _ 2 CD_ 2002\Диск 2\06 Я родом из Одессы.wav

Пиковый уровень 96.5 %
Скорость извлечения 1.2 X
Качество трека 99.9 %
CRC теста 242A4FC7
CRC копии 242A4FC7
Трек не обнаружен в базе AccurateRip
Копирование... OK

Трек 7

Имя файла J:\Раздачи 3\Братья Жемчужные _ 2 CD_ 2002\Диск 2\07 Серенька-пролетарий.wav

Пиковый уровень 96.5 %
Скорость извлечения 1.3 X
Качество трека 99.9 %
CRC теста 2BB7A29E
CRC копии 2BB7A29E
Трек не обнаружен в базе AccurateRip
Копирование... OK

Трек 8

Имя файла J:\Раздачи 3\Братья Жемчужные _ 2 CD_ 2002\Диск 2\08 Ухарь-купец.wav

Пиковый уровень 96.5 %
Скорость извлечения 1.4 X
Качество трека 100.0 %
CRC теста 2E384D4E
CRC копии 2E384D4E
Трек не обнаружен в базе AccurateRip
Копирование... OK

Трек 9

Имя файла J:\Раздачи 3\Братья Жемчужные _ 2 CD_ 2002\Диск 2\09 Отметка на стакане.wav

Пиковый уровень 96.5 %
Скорость извлечения 1.6 X
Качество трека 100.0 %
CRC теста DD7378B4
CRC копии DD7378B4
Трек не обнаружен в базе AccurateRip
Копирование... OK

Трек 10

Имя файла J:\Раздачи 3\Братья Жемчужные _ 2 CD_ 2002\Диск 2\10 Люблю цыгана Яна.wav

Пиковый уровень 96.5 %
Скорость извлечения 1.7 X
Качество трека 100.0 %
CRC теста D59ECCD5
CRC копии D59ECCD5
Трек не обнаружен в базе AccurateRip
Копирование... OK

Трек 11

Имя файла J:\Раздачи 3\Братья Жемчужные _ 2 CD_ 2002\Диск 2\11 Несчастная девчонка.wav

Пиковый уровень 96.5 %
Скорость извлечения 1.7 X
Качество трека 100.0 %
CRC теста E32EE3A1
CRC копии E32EE3A1
Трек не обнаружен в базе AccurateRip
Копирование... OK

Трек 12

Имя файла J:\Раздачи 3\Братья Жемчужные _ 2 CD_ 2002\Диск 2\12 Рыжая.wav

Пиковый уровень 98.8 %
Скорость извлечения 1.8 X
Качество трека 100.0 %
CRC теста 9FBCB72C
CRC копии 9FBCB72C
Трек не обнаружен в базе AccurateRip
Копирование... OK

Трек 13

Имя файла J:\Раздачи 3\Братья Жемчужные _ 2 CD_ 2002\Диск 2\13 Журавли.wav

Пиковый уровень 98.8 %
Скорость извлечения 1.9 X
Качество трека 100.0 %
CRC теста 6C567C41
CRC копии 6C567C41
Трек не обнаружен в базе AccurateRip
Копирование... OK

Трек 14

Имя файла J:\Раздачи 3\Братья Жемчужные _ 2 CD_ 2002\Диск 2\14 Людоедочка.wav

Пиковый уровень 96.5 %
Скорость извлечения 1.8 X
Качество трека 100.0 %
CRC теста 8B4C8F68
CRC копии 8B4C8F68
Трек не обнаружен в базе AccurateRip
Копирование... OK

Трек 15

Имя файла J:\Раздачи 3\Братья Жемчужные _ 2 CD_ 2002\Диск 2\15 Черная роза.wav

Пиковый уровень 98.8 %
Скорость извлечения 2.0 X
Качество трека 100.0 %
CRC теста 01FA0D22
CRC копии 01FA0D22
Трек не обнаружен в базе AccurateRip
Копирование... OK

Трек 16

Имя файла J:\Раздачи 3\Братья Жемчужные _ 2 CD_ 2002\Диск 2\16 Василечки.wav

Пиковый уровень 96.5 %
Скорость извлечения 1.9 X
Качество трека 99.9 %
CRC теста F8118B1B
CRC копии F8118B1B
Трек не обнаружен в базе AccurateRip
Копирование... OK

Трек 17

Имя файла J:\Раздачи 3\Братья Жемчужные _ 2 CD_ 2002\Диск 2\17 Песня шофера-бывшего семинариста.wav

Пиковый уровень 96.5 %
Скорость извлечения 1.8 X
Качество трека 99.9 %
CRC теста 793C359F
CRC копии 793C359F
Трек не обнаружен в базе AccurateRip
Копирование... OK

Трек 18

Имя файла J:\Раздачи 3\Братья Жемчужные _ 2 CD_ 2002\Диск 2\18 Чара.wav

Пиковый уровень 98.8 %
Скорость извлечения 2.1 X
Качество трека 100.0 %
CRC теста 4A6B09A7
CRC копии 4A6B09A7
Трек не обнаружен в базе AccurateRip
Копирование... OK

Трек 19

Имя файла J:\Раздачи 3\Братья Жемчужные _ 2 CD_ 2002\Диск 2\19 Первая любовь.wav

Пиковый уровень 98.8 %
Скорость извлечения 2.1 X
Качество трека 100.0 %
CRC теста 99C715DF
CRC копии 99C715DF
Трек не обнаружен в базе AccurateRip
Копирование... OK

Трек 20

Имя файла J:\Раздачи 3\Братья Жемчужные _ 2 CD_ 2002\Диск 2\20 Метелки.wav

Пиковый уровень 98.8 %
Скорость извлечения 2.1 X
Качество трека 100.0 %
CRC теста 29F50DE7
CRC копии 29F50DE7
Трек не обнаружен в базе AccurateRip
Копирование... OK

Трек 21

Имя файла J:\Раздачи 3\Братья Жемчужные _ 2 CD_ 2002\Диск 2\21 Мама,я жулика люблю.wav

Пиковый уровень 98.8 %
Скорость извлечения 2.1 X
Качество трека 100.0 %
CRC теста F36607D6
CRC копии F36607D6
Трек не обнаружен в базе AccurateRip
Копирование... OK

Трек 22

Имя файла J:\Раздачи 3\Братья Жемчужные _ 2 CD_ 2002\Диск 2\22 Губит людей не пиво.wav

Пиковый уровень 98.8 %
Скорость извлечения 2.3 X
Качество трека 100.0 %
CRC теста CCB83113
CRC копии CCB83113
Трек не обнаружен в базе AccurateRip
Копирование... OK

Трек 23

Имя файла J:\Раздачи 3\Братья Жемчужные _ 2 CD_ 2002\Диск 2\23 Шарабан.wav

Пиковый уровень 98.8 %
Скорость извлечения 2.2 X
Качество трека 99.9 %
CRC теста D8FB158B
CRC копии D8FB158B
Трек не обнаружен в базе AccurateRip
Копирование... OK

Трек 24

Имя файла J:\Раздачи 3\Братья Жемчужные _ 2 CD_ 2002\Диск 2\24 Турок.wav

Пиковый уровень 98.8 %
Скорость извлечения 2.5 X
Качество трека 100.0 %
CRC теста 00723BCF
CRC копии 00723BCF
Трек не обнаружен в базе AccurateRip
Копирование... OK

Трек 25

Имя файла J:\Раздачи 3\Братья Жемчужные _ 2 CD_ 2002\Диск 2\25 Батальонный разведчик.wav

Пиковый уровень 98.8 %
Скорость извлечения 2.4 X
Качество трека 99.9 %
CRC теста F693D38E
CRC копии F693D38E
Трек не обнаружен в базе AccurateRip
Копирование... OK

Ни одного трека нет в базе AccurateRip

Ошибок не произошло

Конец отчёта

==== Контрольная сумма отчёта B9FA88E18D33188CA5296E864F1737562C85F68EE994E40AB5B5F405E9E18E3F ====
REM GENRE Chanson
REM DATE 2002
REM DISCID 7312AA19
REM COMMENT "ExactAudioCopy v1.0b3"
PERFORMER "Братья Жемчужные"
TITLE "Антология русского шансона"
FILE "01 На краю пропасти стою.flac" WAVE
TRACK 01 AUDIO
TITLE "На краю пропасти стою"
PERFORMER "Братья Жемчужные"
INDEX 01 00:00:00
FILE "02 Ты знаешь, мать.flac" WAVE
TRACK 02 AUDIO
TITLE "Ты знаешь, мать?"
PERFORMER "Братья Жемчужные"
INDEX 01 00:00:00
FILE "03 Поспели вишни.flac" WAVE
TRACK 03 AUDIO
TITLE "Поспели вишни"
PERFORMER "Братья Жемчужные"
INDEX 01 00:00:00
FILE "04 Увяли розы.flac" WAVE
TRACK 04 AUDIO
TITLE "Увяли розы"
PERFORMER "Братья Жемчужные"
INDEX 01 00:00:00
FILE "05 А ты - хоть удавись.flac" WAVE
TRACK 05 AUDIO
TITLE "А ты - хоть удавись"
PERFORMER "Братья Жемчужные"
INDEX 01 00:00:00
FILE "06 Я родом из Одессы.flac" WAVE
TRACK 06 AUDIO
TITLE "Я родом из Одессы"
PERFORMER "Братья Жемчужные"
INDEX 01 00:00:00
FILE "07 Серенька-пролетарий.flac" WAVE
TRACK 07 AUDIO
TITLE "Серенька-пролетарий"
PERFORMER "Братья Жемчужные"
INDEX 01 00:00:00
FILE "08 Ухарь-купец.flac" WAVE
TRACK 08 AUDIO
TITLE "Ухарь-купец"
PERFORMER "Братья Жемчужные"
INDEX 01 00:00:00
FILE "09 Отметка на стакане.flac" WAVE
TRACK 09 AUDIO
TITLE "Отметка на стакане"
PERFORMER "Братья Жемчужные"
INDEX 01 00:00:00
FILE "10 Люблю цыгана Яна.flac" WAVE
TRACK 10 AUDIO
TITLE "Люблю цыгана Яна"
PERFORMER "Братья Жемчужные"
INDEX 01 00:00:00
FILE "11 Несчастная девчонка.flac" WAVE
TRACK 11 AUDIO
TITLE "Несчастная девчонка"
PERFORMER "Братья Жемчужные"
INDEX 01 00:00:00
FILE "12 Рыжая.flac" WAVE
TRACK 12 AUDIO
TITLE "Рыжая"
PERFORMER "Братья Жемчужные"
INDEX 01 00:00:00
FILE "13 Журавли.flac" WAVE
TRACK 13 AUDIO
TITLE "Журавли"
PERFORMER "Братья Жемчужные"
INDEX 01 00:00:00
FILE "14 Людоедочка.flac" WAVE
TRACK 14 AUDIO
TITLE "Людоедочка"
PERFORMER "Братья Жемчужные"
INDEX 01 00:00:00
FILE "15 Черная роза.flac" WAVE
TRACK 15 AUDIO
TITLE "Черная роза"
PERFORMER "Братья Жемчужные"
INDEX 01 00:00:00
FILE "16 Василечки.flac" WAVE
TRACK 16 AUDIO
TITLE "Василечки"
PERFORMER "Братья Жемчужные"
INDEX 01 00:00:00
FILE "17 Песня шофера-бывшего семинариста.flac" WAVE
TRACK 17 AUDIO
TITLE "Песня шофера-бывшего семинариста"
PERFORMER "Братья Жемчужные"
INDEX 01 00:00:00
FILE "18 Чара.flac" WAVE
TRACK 18 AUDIO
TITLE "Чара"
PERFORMER "Братья Жемчужные"
INDEX 01 00:00:00
FILE "19 Первая любовь.flac" WAVE
TRACK 19 AUDIO
TITLE "Первая любовь"
PERFORMER "Братья Жемчужные"
INDEX 01 00:00:00
FILE "20 Метелки.flac" WAVE
TRACK 20 AUDIO
TITLE "Метелки"
PERFORMER "Братья Жемчужные"
INDEX 01 00:00:00
FILE "21 Мама,я жулика люблю.flac" WAVE
TRACK 21 AUDIO
TITLE "Мама,я жулика люблю"
PERFORMER "Братья Жемчужные"
INDEX 01 00:00:00
FILE "22 Губит людей не пиво.flac" WAVE
TRACK 22 AUDIO
TITLE "Губит людей не пиво"
PERFORMER "Братья Жемчужные"
INDEX 01 00:00:00
FILE "23 Шарабан.flac" WAVE
TRACK 23 AUDIO
TITLE "Шарабан"
PERFORMER "Братья Жемчужные"
INDEX 01 00:00:00
FILE "24 Турок.flac" WAVE
TRACK 24 AUDIO
TITLE "Турок"
PERFORMER "Братья Жемчужные"
INDEX 01 00:00:00
FILE "25 Батальонный разведчик.flac" WAVE
TRACK 25 AUDIO
TITLE "Батальонный разведчик"
PERFORMER "Братья Жемчужные"
INDEX 01 00:00:00
-----------------------

DON'T MODIFY THIS FILE

-----------------------

PERFORMER: auCDtect Task Manager, ver. 1.5.1RC6 build 1.5.1.7
Copyright (c) 2008-2010 y-soft. All rights reserved
http://y-soft.org

ANALYZER: auCDtect: CD records authenticity detector, version 0.8.2
Copyright (c) 2004 Oleg Berngardt. All rights reserved.
Copyright (c) 2004 Alexander Djourik. All rights reserved.

FILE: 25 Батальонный разведчик.flac
Size: 35630222 Hash: 4EA13C49074C1484E053D330264A0C5B Accuracy: -m8
Conclusion: CDDA 100%
Signature: A8393A7BF3230E49F8DAA3221AF85BF18461C0D0
FILE: 24 Турок.flac
Size: 26925625 Hash: 329512014F80E76B3F76C98AD912B46E Accuracy: -m8
Conclusion: CDDA 100%
Signature: FB48E36522E718C34FA8FF65A7DA0707926BEAA9
FILE: 23 Шарабан.flac
Size: 31019107 Hash: 8EA3C98AB51FC4133B55DF3058579890 Accuracy: -m8
Conclusion: CDDA 100%
Signature: D3171DB49D4FBDC54F7DF0E3798121F83E41BDB6
FILE: 22 Губит людей не пиво.flac
Size: 21476218 Hash: E555F904A843B10F6D498E0FD1A71642 Accuracy: -m8
Conclusion: CDDA 100%
Signature: 9834BDBB5063E7DE337E7D994603176C528C301F
FILE: 21 Мама,я жулика люблю.flac
Size: 18099121 Hash: 81AC331DDFCDBEED4112C06148741690 Accuracy: -m8
Conclusion: CDDA 100%
Signature: AE73A224507EA6CE12BE611D8FBA7D09E7E034B7
FILE: 20 Метелки.flac
Size: 12972826 Hash: 7BB3C263F3627FEB9589F32AE65365AC Accuracy: -m8
Conclusion: CDDA 99%
Signature: EBEF3B90E9F1C4E72A918628D80BE404B3B5CC29
FILE: 19 Первая любовь.flac
Size: 15767864 Hash: C8C52574C7EAD99EBF6F4B10DBF10AE3 Accuracy: -m8
Conclusion: CDDA 100%
Signature: 258EDBE07C93F86610E2D0D96CB7E49937787892
FILE: 18 Чара.flac
Size: 15787188 Hash: 70D9511353C0DC144192939E02A76E33 Accuracy: -m8
Conclusion: CDDA 100%
Signature: BD06FF180197E1A92DCFBE0D62E25C7E75EC9299
FILE: 17 Песня шофера-бывшего семинариста.flac
Size: 22705047 Hash: E63C3C11F89C94385B41EFFD34DDE2A0 Accuracy: -m8
Conclusion: CDDA 100%
Signature: 9934BA3D5491D6CF32B609E26CF018CC224AB93F
FILE: 16 Василечки.flac
Size: 27572278 Hash: 5F2B95ED130C4B8DDCF845D23A8AA336 Accuracy: -m8
Conclusion: CDDA 100%
Signature: 3DD171D64A1BD2DF63E347DA970F36CD0EE5D756
FILE: 15 Черная роза.flac
Size: 27690766 Hash: C086CE896C035F3E547FB501319C1FC3 Accuracy: -m8
Conclusion: CDDA 100%
Signature: E67D4864BEBE49C78DCBAE8C7B8575E3079A5375
FILE: 14 Людоедочка.flac
Size: 20411793 Hash: 71658EE871BF8B41613AE7CFB6BFE749 Accuracy: -m8
Conclusion: CDDA 100%
Signature: 61303D989411802E573A8D2C39C5F46979906B91
FILE: 13 Журавли.flac
Size: 25577285 Hash: 0F0A44891CF75F39588C51E914DC2E67 Accuracy: -m8
Conclusion: CDDA 99%
Signature: 7054BC8D246652462F30418B3BCD01CDA51B4A02
FILE: 12 Рыжая.flac
Size: 21409323 Hash: 5B8547A349AF0DCFB1E080F116011706 Accuracy: -m8
Conclusion: CDDA 100%
Signature: 8FCAC8F1DB4509FB7B12CDADE4A494E62D0F42C1
FILE: 11 Несчастная девчонка.flac
Size: 19204199 Hash: 1FC7B5DECF72B5265C2BBE4535C1B341 Accuracy: -m8
Conclusion: CDDA 99%
Signature: 11EF2EA8B94444C5A2F827DB95C26D6489E7979D
FILE: 10 Люблю цыгана Яна.flac
Size: 22722336 Hash: 24A8758D5655B6848DE77A1DF838B043 Accuracy: -m8
Conclusion: CDDA 100%
Signature: 8596429DBF89B520E4DC5C822108A374099BC743
FILE: 09 Отметка на стакане.flac
Size: 22268376 Hash: AAD87DC6CEABB801D2FEC021C2E41371 Accuracy: -m8
Conclusion: CDDA 99%
Signature: B077ADDC027B8E6DFDFB40EC62C12C4CD4BE5093
FILE: 08 Ухарь-купец.flac
Size: 14407387 Hash: BBE951D6B2330972B09D923008900A40 Accuracy: -m8
Conclusion: CDDA 100%
Signature: A3DB8B8EB58E122FCC4FE2E7BD8DA8EBB7B7565E
FILE: 07 Серенька-пролетарий.flac
Size: 20544778 Hash: 51538ED441371F4117E84038599780D3 Accuracy: -m8
Conclusion: CDDA 99%
Signature: 015DB4E8028CBF800CCC613A20AF4FFFFDBB57F0
FILE: 06 Я родом из Одессы.flac
Size: 19634534 Hash: 1954E66F2A696732F2D71B659CBCB8D6 Accuracy: -m8
Conclusion: CDDA 100%
Signature: 48B1BAC6E3EA33EAB71AA6EFE43FCB868E8ACB33
FILE: 05 А ты - хоть удавись.flac
Size: 13221806 Hash: 46CCFF9ADDDA8EBC895ECE3188B29DC4 Accuracy: -m8
Conclusion: CDDA 100%
Signature: 319578A1EE5B13389CF685281D99FC08CE99BF0F
FILE: 04 Увяли розы.flac
Size: 13543417 Hash: B3C672259EF47DC60206266C6983C563 Accuracy: -m8
Conclusion: CDDA 100%
Signature: 4DFE3B56EE710EA973615D674F0F819C64D185BC
FILE: 03 Поспели вишни.flac
Size: 14973744 Hash: 16269C111803E821949DF6F763476261 Accuracy: -m8
Conclusion: CDDA 100%
Signature: 3408467C3990368A63E66457C2F99CDB05E845A7
FILE: 02 Ты знаешь, мать.flac
Size: 15240888 Hash: EED1DAD7AED34EFE758FC752B18D8B4B Accuracy: -m8
Conclusion: CDDA 100%
Signature: CCCC13547B405E24554CA37C3FFEEE07409661DA
FILE: 01 На краю пропасти стою.flac
Size: 15911254 Hash: D11A61D6868AB9D12898D9774F607B5D Accuracy: -m8
Conclusion: CDDA 100%
Signature: B23CE35B2B9BA696F195C51A19357F94508B8702

Этот торрент недоступен для скачивания без регистрации, однако доступен по публичной magnet-ссылке (источники с публичных трекеров). Перед использованием ссылки прочтите, пожалуйста Пользовательское соглашение, а также как можно дольше оставайтесь на раздаче! Для того, чтобы скачать сам торрент-файл (который видит больше источников), а также для того, чтобы поблагодарить релизера, вам необходимо зарегистрироваться. Если регистрироваться лень - вы можете также попробовать скачать релиз по нашим партнерским ссылкам ниже. Кроме того, зарегистрированным пользователям не показывается всплывающая реклама при скачивании.

[underverse.su].t34150.torrent
Трекер: Зарегистрирован   [ 13.12.2013 12:23 ]  

Статус: проверено (by Бишеп at 13.12.2013 12:24)
Поблагодарили: 1 человек
Тип торрента: публичный - доступные источники с открытых трекеров: 
Размер: 973 MB (занимает 0,22 DVDR, для записи нужно 1 болванка DVDR/RW)
 
 
Похожие темы
Форум Тема Автор Торрент Отв. Посл. сооб.
Шансон (Шансон) Беломорканал - Лучшее - 2004, MP3, 320 kbps Bugor
0 | 0

0 | 2359

16

11.09.2012 17:31

Шансон (Шансон) Бутырка - MP3 Play. Музыкальная коллекция (2013) [MP3, 192 - 256 kbps CBR] viktor.r-79
1 | 0

1 | 1543

46

08.11.2014 18:21

Шансон (Lossless) (Шансон) Братья Жемчужные - Песни из нашей жизни (2001) [FLAC (Tracks+.CUE), Lossless] Бишеп
1 | 1

0 | 892

3

22.12.2016 16:08

Шансон (Lossless) (Шансон) БумеR - Соседка (2013) [FLAC (Image+.CUE), Lossless] Бишеп
1 | 0

0 | 2131

22

29.11.2013 04:46

Шансон (Lossless) (Шансон) БумеR (Бумер) - Не плачь (2014) [FLAC (Image+.CUE), Lossless] Бишеп
1 | 0

0 | 1826

25

07.04.2014 06:02

* Архив (ретро, шансон, военная музыка, барды) (Шансон) Бумер - Когда уходят друзья (2009) [MP3, 320 kbps] taled

1 | 1766

12.09.2010 19:40

Архив (ретро, шансон, военная музыка, барды) (Шансон) Беломорканал - Дискография (1997-2010) [MP3, VBR 128-320 kbps] Алексей 25
0 | 0

2 | 4929

0

28.04.2012 19:15

Архив (ретро, шансон, военная музыка, барды) (Шансон) Бумер - 50 лучших песен (2011) [MP3, 320 kbps CBR] техно1
0 | 0

1 | 7787

12

25.05.2018 15:44


Яндекс.Метрика powered by Sphinx


В Н И М А Н И Е
Сайт не распространяет и не хранит электронные версии произведений, а лишь бесплатно и без коммерческой выгоды (не требуя взамен платы,
SMS и т.д.) предоставляет доступ к создаваемому пользователями каталогу ссылок на торрент-файлы, которые содержат только списки хеш-сумм.
Убедительная просьба с жалобами обращаться напрямую к пользователю, разместившему торрент файл.

Вверх