Loading...
Error

Друзья / Friends / Сезон 9 / Серии 1-24 из 24 (David Crane, Marta Kauffman) [2003, Комедия, BDRip] MVO (РТР)

Статистика раздачи
Размер:  6,07 GB   |    Зарегистрирован:  2 года 11 месяцев   |    Скачан:  12 раз

Полного источника не было: 8 месяцев

Сидов:  0  |  0 KB/s  ]   Личеров:  0  |  0 KB/s  ]

* - сиды/пиры с внешних источников

   
 
Автор Сообщение

evropium Пол:Муж

12-Дек-2013 20:07

Друзья / Friends / Сезон 9 / Серии 1-24 из 24 (David Crane, Marta Kauffman) [2003, Комедия, BDRip] MVO (РТР)


Год выпуска: 2002-2003
Жанр: комедия
Страна: США
Режиссер: David Crane, Marta Kauffman
В ролях: Дженнифер Энистон, Кортни Кокс-Аркет, Лиза Кудроу, Мэтт ЛеБлан, Мэттью Перри, Дэвид Швиммер
Сюжет фильма:
Шесть героев – три очаровательные девушки, и трое симпатичных молодых людей – закадычные друзья.
И вокруг этой крепкой компании строится бесконечное количество разных историй:
у друзей случаются романы, они ссорятся и мирятся. Но молодежь не может быть до конца серьезной,
так что друзья не упускают случая пошутить, а чувство юмора у них отменное.

Качество видео: BDRip

Продолжительность: ~ 00:23:00 серии
Формат: AVI
Видео: XviD, 720x400 , 1 472 kbps
Аудио: русский, многоголосый закадровый [профессиональный], MP3 2.0, 128 kbps

Код:

General
Complete name                  : C:\Users\FATAL\Downloads\Friends.S09.BDRip.by.evropium\Friends.s09e05.Эпизод с днём рождения Фиби.avi
Format                         : AVI
Format/Info                    : Audio Video Interleave
File size                      : 256 MiB
Duration                       : 23mn 13s
Overall bit rate               : 1 538 Kbps
Writing application            : Lavf51.12.1

Video
ID                             : 0
Format                         : xvid
Codec ID                       : xvid
Duration                       : 23mn 13s
Bit rate                       : 1 398 Kbps
Width                          : 720 pixels
Height                         : 400 pixels
Display aspect ratio           : 16:9
Frame rate                     : 23.976 fps
Bits/(Pixel*Frame)             : 0.202
Stream size                    : 232 MiB (91%)

Audio
ID                             : 1
Format                         : MPEG Audio
Format version                 : Version 1
Format profile                 : Layer 3
Mode                           : Joint stereo
Mode extension                 : MS Stereo
Codec ID                       : 55
Codec ID/Hint                  : MP3
Duration                       : 23mn 13s
Bit rate mode                  : Constant
Bit rate                       : 128 Kbps
Channel(s)                     : 2 channels
Sampling rate                  : 44.1 KHz
Compression mode               : Lossy
Stream size                    : 21.3 MiB (8%)
Alignment                      : Aligned on interleaves
Interleave, duration           : 26 ms (0.63 video frame)
Interleave, preload duration   : 26 ms
Writing library                : LAME3.97

Семпл: http://multi-up.com/931924

picpicpicpicpic
Для увеличения картинки щелкните мышкой по превью

Этот торрент недоступен для скачивания без регистрации, однако доступен по публичной magnet-ссылке (источники с публичных трекеров). Перед использованием ссылки прочтите, пожалуйста Пользовательское соглашение, а также как можно дольше оставайтесь на раздаче! Для того, чтобы скачать сам торрент-файл (который видит больше источников), а также для того, чтобы поблагодарить релизера, вам необходимо зарегистрироваться. Если регистрироваться лень - вы можете также попробовать скачать релиз по нашим партнерским ссылкам ниже.

[underverse.su].t34132.torrent
Трекер: Зарегистрирован   [ 12.12.2013 20:24 ]  

Статус: % на проверке (by garry at 13.12.2013 20:53)
Поблагодарили: 1 человек
Тип торрента: публичный - доступные источники с открытых трекеров: 
Размер: 6,07 GB (занимает 1,39 DVDR, для записи нужно 2 болванки DVDR/RW)
 
 
Похожие темы
Форум Тема Автор Торрент Отв. Посл. сооб.
% Зарубежные сериалы Друзья / Friends / Сезон 6 / Серии 1-24 из 24 (David Crane, Marta Kauffman) [2000, Комедия, BDRip] MVO (РТР) evropium
0 | 0

16 | 2508

10

11.09.2015 21:39

% Зарубежные сериалы Друзья / Friends / Сезон 7 / Серии 1-24 из 24 (David Crane, Marta Kauffman) [2001, Комедия, BDRip] MVO (РТР) evropium
0 | 0

1 | 1880

14

11.09.2015 21:52

Зарубежные сериалы Друзья / Friends / Сезон 8 / Серии 1-24 из 24 (David Crane, Marta Kauffman) [2002, Комедия, BDRip] MVO (РТР) evropium
0 | 1

2 | 1897

12

20.11.2015 14:37

% Зарубежные сериалы Друзья / Friends / Сезон 10 / Серии 1-18 из 18 ( David Crane, Marta Kauffman)[2004, комедия, BDRip] MVO (РТР-ТНТ) evropium
0 | 0

0 | 756

9

19.01.2014 11:38

TV Series Друзья / Friends / Season 1-10 (David Crane, Marta Kauffman) [1994-2004 г., Комедия, DVDRip] Mahone
0 | 1

9 | 4620

0

10.09.2012 10:46


Яндекс.Метрика powered by Sphinx


В Н И М А Н И Е
Сайт не распространяет и не хранит электронные версии произведений, а лишь бесплатно и без коммерческой выгоды (не требуя взамен платы,
SMS и т.д.) предоставляет доступ к создаваемому пользователями каталогу ссылок на торрент-файлы, которые содержат только списки хеш-сумм.
Убедительная просьба с жалобами обращаться напрямую к пользователю, разместившему торрент файл.

Вверх