Loading...
Error

Сталинград (Фёдор Бондарчук) [2013 г., военный, драма, боевик, BDRip] HQ Underverse

Статистика раздачи
Размер:  2,17 GB   |    Зарегистрирован:  2 года 11 месяцев   |    Скачан:  316 раз

Полного источника не было: 2 дня 2 часа

Сидов:  0  |  0 KB/s  ]   Личеров:  0  |  0 KB/s  ]

* - сиды/пиры с внешних источников

   
 
Автор Сообщение

HQ Underverse 

12-Дек-2013 15:53

Сталинград


Год выпуска: 2013
Жанр: военный, драма, боевик
Страна: Россия
Режиссер: Фёдор Бондарчук
В ролях: Пётр Фёдоров, Томас Кречманн, Мария Смольникова, Яна Студилина, Дмитрий Лысенков, Алексей Барабаш, Андрей Смоляков, Сергей Бондарчук, Олег Волку, Хайнер Лаутербах, Олег Тилькин, Ян Кузьмин, Кирилл Варакса, Полина Райкина, Юрий Уткин, Олег Малышев
Сюжет фильма:
1942-й год. Сталинград. Советские войска планируют контрнаступление на немецкие части, занявшие правый берег Волги. Наступление сорвано. Лишь разведчикам под командованием капитана Громова удается перебраться на другой берег и закрепиться в одном из домов. Им дан приказ удержать его любой ценой. Кроме нескольких чудом уцелевших советских солдат они находят в доме его последнюю жительницу — 19-летнюю Катю. Приказ отбить дом, захваченный противником, получает немецкий офицер Кан. На фоне одного из самых кровопролитных сражений в истории человечества разворачиваются истории любви и драматического противостояния характеров.

  • Мировая премьера: 10 октября 2013
  • Российская премьера: 10 октября 2013

|
Качество видео: BDRip

Продолжительность: 02:10:41
Формат: avi
Видео: XviD, 720x304, 1915 kbps
Аудио: русский, оригинал, AC3 5.1, 448 kbps

Код:

General
Complete name                    : Z:\windoza-share\Сталинград\Stalingrad.2013.BDRip.XviD.AC3.Rus.O.HQ.Underverse.avi
Format                           : AVI
Format/Info                      : Audio Video Interleave
Format profile                   : OpenDML
File size                        : 2.17 GiB
Duration                         : 2h 10mn
Overall bit rate                 : 2 376 Kbps
Writing application              : VirtualDubMod 1.5.10.2 (build 2540/release)
Writing library                  : VirtualDubMod build 2540/release

Video
ID                               : 0
Format                           : MPEG-4 Visual
Format profile                   : Streaming Video@L1
Format settings, BVOP            : Yes
Format settings, QPel            : No
Format settings, GMC             : No warppoints
Format settings, Matrix          : Custom
Muxing mode                      : Packed bitstream
Codec ID                         : XVID
Codec ID/Hint                    : XviD
Duration                         : 2h 10mn
Bit rate                         : 1 916 Kbps
Width                            : 720 pixels
Height                           : 304 pixels
Display aspect ratio             : 2.35
Frame rate                       : 24.000 fps
Resolution                       : 24 bits
Colorimetry                      : 4:2:0
Scan type                        : Progressive
Bits/(Pixel*Frame)               : 0.365
Stream size                      : 1.75 GiB (81%)
Writing library                  : XviD 64

Audio
ID                               : 1
Format                           : AC-3
Format/Info                      : Audio Coding 3
Codec ID                         : 2000
Duration                         : 2h 10mn
Bit rate mode                    : Constant
Bit rate                         : 448 Kbps
Channel(s)                       : 6 channels
Channel positions                : Front: L C R, Surround: L R, LFE
Sampling rate                    : 48.0 KHz
Stream size                      : 419 MiB (19%)
Alignment                        : Split accross interleaves
Interleave, duration             : 42 ms (1.00 video frame)
Interleave, preload duration     : 500 ms

Релиз группы:

picpicpic
Для увеличения картинки щелкните мышкой по превью

Этот торрент недоступен для скачивания без регистрации, однако доступен по публичной magnet-ссылке (источники с публичных трекеров). Перед использованием ссылки прочтите, пожалуйста Пользовательское соглашение, а также как можно дольше оставайтесь на раздаче! Для того, чтобы скачать сам торрент-файл (который видит больше источников), а также для того, чтобы поблагодарить релизера, вам необходимо зарегистрироваться. Если регистрироваться лень - вы можете также попробовать скачать релиз по нашим партнерским ссылкам ниже.

[underverse.su].t34114.torrent
Трекер: Зарегистрирован   [ 12.12.2013 15:53 ]  

Статус: проверено (by HQ Underverse at 12.12.2013 15:53)
Поблагодарили: 13 человек
Тип торрента: публичный - доступные источники с открытых трекеров: 
Размер: 2,17 GB (занимает 1/2 DVDR, для записи нужно 1 болванка DVDR/RW)
 
 
Похожие темы
Форум Тема Автор Торрент Отв. Посл. сооб.
Наше кино [DVDRip, Low-Res HDRip, и т.д.] Сталинград (Фёдор Бондарчук) [2013 г., военный, драма, боевик, BDRip-AVC] Паукан
1 | 0

5 | 3213

185

18.01.2014 20:43

Военные хроники Сталинград (Подлинная история) (3 серии) [2003 г., военный, исторический, документальный, DVDRip] Neyasyt
0 | 0

1 | 1452

46

06.05.2013 14:18

Военные хроники Сталинград. Победа, изменившая мир [01-08 из 08] (Александр Беланов) [2013 г., документальный, SATRip] Чертёнок
0 | 0

0 | 1240

11

17.10.2013 14:13

Зарубежное кино [DVD / HDDVD / BD / Remux] Сталинград (Фёдор Бондарчук) [2013, Россия, боевик, драма, военный, Blu-ray disc] uzi2009
6 | 0

0 | 1552

11

21.03.2014 22:13

Наше кино [DVD / HDDVD / BD / Remux] Сталинград (Фёдор Бондарчук) [2013 г., военный, драма, боевик, 2xDVD9] R5 nemos
1 | 1

5 | 1273

92

06.12.2013 17:16

Наше кино [HDDVDRip / BDRip / WEB-DL / HDTV 1080/720р] Сталинград (Фёдор Бондарчук) [2013 г., боевик, драма, военный, BDRip 1080p] garry
0 | 0

1 | 1807

109

11.12.2013 20:00

Трейлеры HD DVD, Blu-Ray Сталинград (Фёдор Бондарчук) (Трейлер) [2013 г., Боевик, военный, HDTVRip 1080p] Чертёнок
0 | 0

0 | 2876

24

03.05.2013 12:19

левый чувак 

13-Дек-2013 04:00

HQ Underverse
Почему-то не качается твоя раздача, совсем. Вечный статус "Подключение к пирам" и всё.
Удалил торрент и нажал заново — тот же результат.
Подредактировано: отбой, закачка наконец-то пошла.


Последний раз редактировалось: левый чувак (13.12.2013 11:23), всего редактировалось 1 раз

garry Пол:Муж

13-Дек-2013 10:23

левый чувак
это все происки Фёдораса

левый чувак 

13-Дек-2013 11:23

А, это ты, gari
Какими судьбами, gari?

90ytr90 

13-Дек-2013 14:24

левый чувак писал(а):

А, это ты, gari
Какими судьбами, gari?
Никакой "РосКомПозор" нам не страшен, когда такие люди есть:

Цитата:

левый чувак
Стаж: 2 дня
Сообщений: 5
UL: 430,82 GB
DL: 0 B
Рейтинг: -
Сид бонус: 44
:shock:

dargot54 Пол:Муж

14-Дек-2013 07:53

Говеный фильм :bad:

zvyozdkin Пол:Муж

14-Дек-2013 11:44

:good:

Яндекс.Метрика powered by Sphinx


В Н И М А Н И Е
Сайт не распространяет и не хранит электронные версии произведений, а лишь бесплатно и без коммерческой выгоды (не требуя взамен платы,
SMS и т.д.) предоставляет доступ к создаваемому пользователями каталогу ссылок на торрент-файлы, которые содержат только списки хеш-сумм.
Убедительная просьба с жалобами обращаться напрямую к пользователю, разместившему торрент файл.

Вверх