Loading...
Error

Семнадцать мгновений весны (12 серий) (Татьяна Лиознова) [1973 (2009 Ремастеринг) г., военный, детектив, исторический, приключения, DVDRip] [Цветная версия]

Статистика раздачи
Размер:  8,18 GB   |    Зарегистрирован:  2 года 11 месяцев   |    Скачан:  17 раз
Сидов:  1  |  137 KB/s  ]   Личеров:  0  |  0 KB/s  ]

* - сиды/пиры с внешних источников

   
 
Автор Сообщение

kesheva 

12-Дек-2013 15:01

Семнадцать мгновений весны


Год выпуска: 1973 (2009 Ремастеринг)
Жанр: военный, детектив, исторический, приключения
Страна: СССР
Режиссер: Татьяна Лиознова
В ролях: Вячеслав Тихонов, Евгений Кузнецов, Михаил Жарковский, Фриц Дитц, Николай Прокопович, Юрий Визбор, Олег Табаков, Леонид Броневой, Василий Лановой
Сюжет фильма:
Действие фильма разворачивается в феврале-марте 1945 года, незадолго до капитуляции Германии во Второй мировой войне. Герой фильма, штандартенфюрер Макс Отто фон Штирлиц, советский разведчик, работающий в центральном аппарате СД, получает задание выяснить, кто из высших руководителей Рейха ведёт сепаратные переговоры с Западом.


Качество видео: DVDRip

Продолжительность: 00:51:00 - серия
Формат: AVI
Видео: XviD, 720х416, 1918 kbps; DivX5, 700х432, 1674 kbps; DivX5, 684х428, 1729 kbps; DivX5, 688х432, 2047 kbps;
Аудио: русский, MP3 2.0, 96-128 kbps

Код:

1 серия
---------
Полное имя                               : 17-01.avi
Формат                                   : AVI
Формат/Информация                        : Audio Video Interleave
Размер файла                             : 702 Мбайт
Продолжительность                        : 51 м.
Общий поток                              : 1918 Кбит/сек
Программа кодирования                    : VirtualDubModRus 1.5.10.2 (build 2540/release)
Библиотека кодирования                   : VirtualDub build 30586/release

Видео
Идентификатор                            : 0
Формат                                   : MPEG-4 Visual
Профиль формата                          : Advanced Simple@L5
Параметр BVOP формата                    : 1
Параметр QPel формата                    : Нет
Параметр GMC формата                     : Без точки перехода
Параметр матрицы формата                 : Default (H.263)
Режим смешивания                         : Сжатый битовый поток
Идентификатор кодека                     : XVID
Идентификатор кодека/Подсказка           : XviD
Продолжительность                        : 51 м.
Битрейт                                  : 1812 Кбит/сек
Ширина                                   : 720 пикселей
Высота                                   : 416 пикселей
Соотношение сторон                       : 1,731
Частота кадров                           : 25,000 кадров/сек
Цветовое пространство                    : YUV
Субдискретизация насыщенности            : 4:2:0
Битовая глубина                          : 8 бит
Тип развёртки                            : Прогрессивная
Метод сжатия                             : С потерями
Бит/(Пиксели*Кадры)                      : 0.242
Размер потока                            : 663 Мбайт (94%)
Библиотека кодирования                   : XviD 1.2.1 (UTC 2008-12-04)

Аудио
Идентификатор                            : 1
Формат                                   : MPEG Audio
Версия формата                           : Version 1
Профиль формата                          : Layer 3
Режим                                    : Joint stereo
Расширение режима                        : Intensity Stereo + MS Stereo
Идентификатор кодека                     : 55
Идентификатор кодека/Подсказка           : MP3
Продолжительность                        : 51 м.
Вид битрейта                             : Постоянный
Битрейт                                  : 96,0 Кбит/сек
Каналы                                   : 2 канала
Частота                                  : 48,0 КГц
Метод сжатия                             : С потерями
Размер потока                            : 35,1 Мбайт (5%)
Выравнивание                             : Разделение по промежуткам
Продолжительность промежутка             : 40  мс. (1,00 видеокадр)
Время предзагрузки промежутка            : 500  мс.

2 серия
---------
Полное имя                               : 17-02.avi
Формат                                   : AVI
Формат/Информация                        : Audio Video Interleave
Размер файла                             : 668 Мбайт
Продолжительность                        : 51 м.
Общий поток                              : 1811 Кбит/сек
Библиотека кодирования                   : VirtualDub build 30586/release

Видео
Идентификатор                            : 0
Формат                                   : MPEG-4 Visual
Профиль формата                          : Advanced Simple@L5
Параметр BVOP формата                    : 1
Параметр QPel формата                    : Нет
Параметр GMC формата                     : Без точки перехода
Параметр матрицы формата                 : Выборочная
Идентификатор кодека                     : DX50
Идентификатор кодека/Подсказка           : DivX 5
Продолжительность                        : 51 м.
Битрейт                                  : 1674 Кбит/сек
Ширина                                   : 700 пикселей
Высота                                   : 432 пикселя
Соотношение сторон                       : 16:10
Частота кадров                           : 25,000 кадров/сек
Цветовое пространство                    : YUV
Субдискретизация насыщенности            : 4:2:0
Битовая глубина                          : 8 бит
Тип развёртки                            : Прогрессивная
Метод сжатия                             : С потерями
Бит/(Пиксели*Кадры)                      : 0.221
Размер потока                            : 617 Мбайт (92%)
Библиотека кодирования                   : XviD 1.3.0.dev55

Аудио
Идентификатор                            : 1
Формат                                   : MPEG Audio
Версия формата                           : Version 1
Профиль формата                          : Layer 3
Режим                                    : Joint stereo
Расширение режима                        : MS Stereo
Идентификатор кодека                     : 55
Идентификатор кодека/Подсказка           : MP3
Продолжительность                        : 51 м.
Вид битрейта                             : Постоянный
Битрейт                                  : 128 Кбит/сек
Каналы                                   : 2 канала
Частота                                  : 48,0 КГц
Метод сжатия                             : С потерями
Размер потока                            : 47,2 Мбайт (7%)
Выравнивание                             : Разделение по промежуткам
Продолжительность промежутка             : 40  мс. (1,00 видеокадр)
Время предзагрузки промежутка            : 500  мс.

3 серия
---------
Полное имя                               : 17-03.avi
Формат                                   : AVI
Формат/Информация                        : Audio Video Interleave
Размер файла                             : 685 Мбайт
Продолжительность                        : 51 м.
Общий поток                              : 1867 Кбит/сек
Библиотека кодирования                   : VirtualDub build 30586/release

Видео
Идентификатор                            : 0
Формат                                   : MPEG-4 Visual
Профиль формата                          : Advanced Simple@L5
Параметр BVOP формата                    : 1
Параметр QPel формата                    : Нет
Параметр GMC формата                     : Без точки перехода
Параметр матрицы формата                 : Выборочная
Идентификатор кодека                     : DX50
Идентификатор кодека/Подсказка           : DivX 5
Продолжительность                        : 51 м.
Битрейт                                  : 1729 Кбит/сек
Ширина                                   : 684 пикселя
Высота                                   : 428 пикселей
Соотношение сторон                       : 16:10
Частота кадров                           : 25,000 кадров/сек
Цветовое пространство                    : YUV
Субдискретизация насыщенности            : 4:2:0
Битовая глубина                          : 8 бит
Тип развёртки                            : Прогрессивная
Метод сжатия                             : С потерями
Бит/(Пиксели*Кадры)                      : 0.236
Размер потока                            : 634 Мбайт (93%)
Библиотека кодирования                   : XviD 1.3.0.dev55

Аудио
Идентификатор                            : 1
Формат                                   : MPEG Audio
Версия формата                           : Version 1
Профиль формата                          : Layer 3
Режим                                    : Joint stereo
Расширение режима                        : MS Stereo
Идентификатор кодека                     : 55
Идентификатор кодека/Подсказка           : MP3
Продолжительность                        : 51 м.
Вид битрейта                             : Постоянный
Битрейт                                  : 128 Кбит/сек
Каналы                                   : 2 канала
Частота                                  : 48,0 КГц
Метод сжатия                             : С потерями
Размер потока                            : 46,9 Мбайт (7%)
Выравнивание                             : Разделение по промежуткам
Продолжительность промежутка             : 40  мс. (1,00 видеокадр)
Время предзагрузки промежутка            : 500  мс.

4 серия
---------
Полное имя                               : 17-04.avi
Формат                                   : AVI
Формат/Информация                        : Audio Video Interleave
Размер файла                             : 743 Мбайт
Продолжительность                        : 51 м.
Общий поток                              : 2009 Кбит/сек
Библиотека кодирования                   : VirtualDub build 30586/release

Видео
Идентификатор                            : 0
Формат                                   : MPEG-4 Visual
Профиль формата                          : Advanced Simple@L5
Параметр BVOP формата                    : 1
Параметр QPel формата                    : Нет
Параметр GMC формата                     : Без точки перехода
Параметр матрицы формата                 : Выборочная
Идентификатор кодека                     : DX50
Идентификатор кодека/Подсказка           : DivX 5
Продолжительность                        : 51 м.
Битрейт                                  : 1872 Кбит/сек
Ширина                                   : 684 пикселя
Высота                                   : 428 пикселей
Соотношение сторон                       : 16:10
Частота кадров                           : 25,000 кадров/сек
Цветовое пространство                    : YUV
Субдискретизация насыщенности            : 4:2:0
Битовая глубина                          : 8 бит
Тип развёртки                            : Прогрессивная
Метод сжатия                             : С потерями
Бит/(Пиксели*Кадры)                      : 0.256
Размер потока                            : 692 Мбайт (93%)
Библиотека кодирования                   : XviD 1.3.0.dev55

Аудио
Идентификатор                            : 1
Формат                                   : MPEG Audio
Версия формата                           : Version 1
Профиль формата                          : Layer 3
Режим                                    : Joint stereo
Расширение режима                        : MS Stereo
Идентификатор кодека                     : 55
Идентификатор кодека/Подсказка           : MP3
Продолжительность                        : 51 м.
Вид битрейта                             : Постоянный
Битрейт                                  : 128 Кбит/сек
Каналы                                   : 2 канала
Частота                                  : 48,0 КГц
Метод сжатия                             : С потерями
Задержка видео                           : 16 мс.
Размер потока                            : 47,4 Мбайт (6%)
Выравнивание                             : Разделение по промежуткам
Продолжительность промежутка             : 40  мс. (1,00 видеокадр)
Время предзагрузки промежутка            : 500  мс.

5 серия
---------
Полное имя                               : 17-05.avi
Формат                                   : AVI
Формат/Информация                        : Audio Video Interleave
Размер файла                             : 796 Мбайт
Продолжительность                        : 50 м.
Общий поток                              : 2184 Кбит/сек
Библиотека кодирования                   : VirtualDub build 30586/release

Видео
Идентификатор                            : 0
Формат                                   : MPEG-4 Visual
Профиль формата                          : Advanced Simple@L5
Параметр BVOP формата                    : 1
Параметр QPel формата                    : Нет
Параметр GMC формата                     : Без точки перехода
Параметр матрицы формата                 : Выборочная
Идентификатор кодека                     : DX50
Идентификатор кодека/Подсказка           : DivX 5
Продолжительность                        : 50 м.
Битрейт                                  : 2047 Кбит/сек
Ширина                                   : 688 пикселей
Высота                                   : 432 пикселя
Соотношение сторон                       : 16:10
Частота кадров                           : 25,000 кадров/сек
Цветовое пространство                    : YUV
Субдискретизация насыщенности            : 4:2:0
Битовая глубина                          : 8 бит
Тип развёртки                            : Прогрессивная
Метод сжатия                             : С потерями
Бит/(Пиксели*Кадры)                      : 0.275
Размер потока                            : 746 Мбайт (94%)
Библиотека кодирования                   : XviD 1.3.0.dev55

Аудио
Идентификатор                            : 1
Формат                                   : MPEG Audio
Версия формата                           : Version 1
Профиль формата                          : Layer 3
Режим                                    : Joint stereo
Расширение режима                        : MS Stereo
Идентификатор кодека                     : 55
Идентификатор кодека/Подсказка           : MP3
Продолжительность                        : 50 м.
Вид битрейта                             : Постоянный
Битрейт                                  : 128 Кбит/сек
Каналы                                   : 2 канала
Частота                                  : 48,0 КГц
Метод сжатия                             : С потерями
Задержка видео                           : 13 мс.
Размер потока                            : 46,7 Мбайт (6%)
Выравнивание                             : Разделение по промежуткам
Продолжительность промежутка             : 40  мс. (1,00 видеокадр)
Время предзагрузки промежутка            : 500  мс.

6 серия
---------
Полное имя                               : 17-06.avi
Формат                                   : AVI
Формат/Информация                        : Audio Video Interleave
Размер файла                             : 896 Мбайт
Продолжительность                        : 52 м.
Общий поток                              : 2391 Кбит/сек
Библиотека кодирования                   : VirtualDub build 30586/release

Видео
Идентификатор                            : 0
Формат                                   : MPEG-4 Visual
Профиль формата                          : Advanced Simple@L5
Параметр BVOP формата                    : 1
Параметр QPel формата                    : Нет
Параметр GMC формата                     : Без точки перехода
Параметр матрицы формата                 : Выборочная
Идентификатор кодека                     : DX50
Идентификатор кодека/Подсказка           : DivX 5
Продолжительность                        : 52 м.
Битрейт                                  : 2254 Кбит/сек
Ширина                                   : 688 пикселей
Высота                                   : 432 пикселя
Соотношение сторон                       : 16:10
Частота кадров                           : 25,000 кадров/сек
Цветовое пространство                    : YUV
Субдискретизация насыщенности            : 4:2:0
Битовая глубина                          : 8 бит
Тип развёртки                            : Прогрессивная
Метод сжатия                             : С потерями
Бит/(Пиксели*Кадры)                      : 0.303
Размер потока                            : 844 Мбайт (94%)
Библиотека кодирования                   : XviD 1.3.0.dev55

Аудио
Идентификатор                            : 1
Формат                                   : MPEG Audio
Версия формата                           : Version 1
Профиль формата                          : Layer 3
Режим                                    : Joint stereo
Расширение режима                        : MS Stereo
Идентификатор кодека                     : 55
Идентификатор кодека/Подсказка           : MP3
Продолжительность                        : 52 м.
Вид битрейта                             : Постоянный
Битрейт                                  : 128 Кбит/сек
Каналы                                   : 2 канала
Частота                                  : 48,0 КГц
Метод сжатия                             : С потерями
Задержка видео                           : 2 мс.
Размер потока                            : 48,0 Мбайт (5%)
Выравнивание                             : Разделение по промежуткам
Продолжительность промежутка             : 40  мс. (1,00 видеокадр)
Время предзагрузки промежутка            : 500  мс.

7 серия
---------
Полное имя                               : 17-07.avi
Формат                                   : AVI
Формат/Информация                        : Audio Video Interleave
Размер файла                             : 681 Мбайт
Продолжительность                        : 51 м.
Общий поток                              : 1861 Кбит/сек
Библиотека кодирования                   : VirtualDub build 30586/release

Видео
Идентификатор                            : 0
Формат                                   : MPEG-4 Visual
Профиль формата                          : Advanced Simple@L5
Параметр BVOP формата                    : 1
Параметр QPel формата                    : Нет
Параметр GMC формата                     : Без точки перехода
Параметр матрицы формата                 : Выборочная
Идентификатор кодека                     : DX50
Идентификатор кодека/Подсказка           : DivX 5
Продолжительность                        : 51 м.
Битрейт                                  : 1723 Кбит/сек
Ширина                                   : 688 пикселей
Высота                                   : 432 пикселя
Соотношение сторон                       : 16:10
Частота кадров                           : 25,000 кадров/сек
Цветовое пространство                    : YUV
Субдискретизация насыщенности            : 4:2:0
Битовая глубина                          : 8 бит
Тип развёртки                            : Прогрессивная
Метод сжатия                             : С потерями
Бит/(Пиксели*Кадры)                      : 0.232
Размер потока                            : 631 Мбайт (93%)
Библиотека кодирования                   : XviD 1.3.0.dev55

Аудио
Идентификатор                            : 1
Формат                                   : MPEG Audio
Версия формата                           : Version 1
Профиль формата                          : Layer 3
Режим                                    : Joint stereo
Расширение режима                        : MS Stereo
Идентификатор кодека                     : 55
Идентификатор кодека/Подсказка           : MP3
Продолжительность                        : 51 м.
Вид битрейта                             : Постоянный
Битрейт                                  : 128 Кбит/сек
Каналы                                   : 2 канала
Частота                                  : 48,0 КГц
Метод сжатия                             : С потерями
Задержка видео                           : 1 мс.
Размер потока                            : 46,8 Мбайт (7%)
Выравнивание                             : Разделение по промежуткам
Продолжительность промежутка             : 40  мс. (1,00 видеокадр)
Время предзагрузки промежутка            : 500  мс.

8 серия
---------
Полное имя                               : 17-08.avi
Формат                                   : AVI
Формат/Информация                        : Audio Video Interleave
Размер файла                             : 607 Мбайт
Продолжительность                        : 51 м.
Общий поток                              : 1651 Кбит/сек
Библиотека кодирования                   : VirtualDub build 30586/release

Видео
Идентификатор                            : 0
Формат                                   : MPEG-4 Visual
Профиль формата                          : Advanced Simple@L5
Параметр BVOP формата                    : 1
Параметр QPel формата                    : Нет
Параметр GMC формата                     : Без точки перехода
Параметр матрицы формата                 : Выборочная
Идентификатор кодека                     : DX50
Идентификатор кодека/Подсказка           : DivX 5
Продолжительность                        : 51 м.
Битрейт                                  : 1513 Кбит/сек
Ширина                                   : 688 пикселей
Высота                                   : 432 пикселя
Соотношение сторон                       : 16:10
Частота кадров                           : 25,000 кадров/сек
Цветовое пространство                    : YUV
Субдискретизация насыщенности            : 4:2:0
Битовая глубина                          : 8 бит
Тип развёртки                            : Прогрессивная
Метод сжатия                             : С потерями
Бит/(Пиксели*Кадры)                      : 0.204
Размер потока                            : 556 Мбайт (92%)
Библиотека кодирования                   : XviD 1.3.0.dev55

Аудио
Идентификатор                            : 1
Формат                                   : MPEG Audio
Версия формата                           : Version 1
Профиль формата                          : Layer 3
Режим                                    : Joint stereo
Расширение режима                        : MS Stereo
Идентификатор кодека                     : 55
Идентификатор кодека/Подсказка           : MP3
Продолжительность                        : 51 м.
Вид битрейта                             : Постоянный
Битрейт                                  : 128 Кбит/сек
Каналы                                   : 2 канала
Частота                                  : 48,0 КГц
Метод сжатия                             : С потерями
Задержка видео                           : 1 мс.
Размер потока                            : 47,1 Мбайт (8%)
Выравнивание                             : Разделение по промежуткам
Продолжительность промежутка             : 40  мс. (1,00 видеокадр)
Время предзагрузки промежутка            : 500  мс.

9 серия
---------
Полное имя                               : 17-09.avi
Формат                                   : AVI
Формат/Информация                        : Audio Video Interleave
Размер файла                             : 739 Мбайт
Продолжительность                        : 52 м.
Общий поток                              : 1967 Кбит/сек
Библиотека кодирования                   : VirtualDub build 30586/release

Видео
Идентификатор                            : 0
Формат                                   : MPEG-4 Visual
Профиль формата                          : Advanced Simple@L5
Параметр BVOP формата                    : 1
Параметр QPel формата                    : Нет
Параметр GMC формата                     : Без точки перехода
Параметр матрицы формата                 : Выборочная
Идентификатор кодека                     : DX50
Идентификатор кодека/Подсказка           : DivX 5
Продолжительность                        : 52 м.
Битрейт                                  : 1829 Кбит/сек
Ширина                                   : 688 пикселей
Высота                                   : 432 пикселя
Соотношение сторон                       : 16:10
Частота кадров                           : 25,000 кадров/сек
Цветовое пространство                    : YUV
Субдискретизация насыщенности            : 4:2:0
Битовая глубина                          : 8 бит
Тип развёртки                            : Прогрессивная
Метод сжатия                             : С потерями
Бит/(Пиксели*Кадры)                      : 0.246
Размер потока                            : 687 Мбайт (93%)
Библиотека кодирования                   : XviD 1.3.0.dev55

Аудио
Идентификатор                            : 1
Формат                                   : MPEG Audio
Версия формата                           : Version 1
Профиль формата                          : Layer 3
Режим                                    : Joint stereo
Расширение режима                        : MS Stereo
Идентификатор кодека                     : 55
Идентификатор кодека/Подсказка           : MP3
Продолжительность                        : 52 м.
Вид битрейта                             : Постоянный
Битрейт                                  : 128 Кбит/сек
Каналы                                   : 2 канала
Частота                                  : 48,0 КГц
Метод сжатия                             : С потерями
Задержка видео                           : 1 мс.
Размер потока                            : 48,1 Мбайт (7%)
Выравнивание                             : Разделение по промежуткам
Продолжительность промежутка             : 40  мс. (1,00 видеокадр)
Время предзагрузки промежутка            : 500  мс.

10 серия
---------
Полное имя                               : 17-10.avi
Формат                                   : AVI
Формат/Информация                        : Audio Video Interleave
Размер файла                             : 637 Мбайт
Продолжительность                        : 51 м.
Общий поток                              : 1725 Кбит/сек
Библиотека кодирования                   : VirtualDub build 30586/release

Видео
Идентификатор                            : 0
Формат                                   : MPEG-4 Visual
Профиль формата                          : Advanced Simple@L5
Параметр BVOP формата                    : 1
Параметр QPel формата                    : Нет
Параметр GMC формата                     : Без точки перехода
Параметр матрицы формата                 : Выборочная
Идентификатор кодека                     : DX50
Идентификатор кодека/Подсказка           : DivX 5
Продолжительность                        : 51 м.
Битрейт                                  : 1587 Кбит/сек
Ширина                                   : 688 пикселей
Высота                                   : 432 пикселя
Соотношение сторон                       : 16:10
Частота кадров                           : 25,000 кадров/сек
Цветовое пространство                    : YUV
Субдискретизация насыщенности            : 4:2:0
Битовая глубина                          : 8 бит
Тип развёртки                            : Прогрессивная
Метод сжатия                             : С потерями
Бит/(Пиксели*Кадры)                      : 0.214
Размер потока                            : 586 Мбайт (92%)
Библиотека кодирования                   : XviD 1.3.0.dev55

Аудио
Идентификатор                            : 1
Формат                                   : MPEG Audio
Версия формата                           : Version 1
Профиль формата                          : Layer 3
Режим                                    : Joint stereo
Расширение режима                        : MS Stereo
Идентификатор кодека                     : 55
Идентификатор кодека/Подсказка           : MP3
Продолжительность                        : 51 м.
Вид битрейта                             : Постоянный
Битрейт                                  : 128 Кбит/сек
Каналы                                   : 2 канала
Частота                                  : 48,0 КГц
Метод сжатия                             : С потерями
Задержка видео                           : 17 мс.
Размер потока                            : 47,3 Мбайт (7%)
Выравнивание                             : Разделение по промежуткам
Продолжительность промежутка             : 40  мс. (1,00 видеокадр)
Время предзагрузки промежутка            : 500  мс.

11 серия
---------
Полное имя                               : 17-11.avi
Формат                                   : AVI
Формат/Информация                        : Audio Video Interleave
Размер файла                             : 577 Мбайт
Продолжительность                        : 51 м.
Общий поток                              : 1577 Кбит/сек
Библиотека кодирования                   : VirtualDub build 30586/release

Видео
Идентификатор                            : 0
Формат                                   : MPEG-4 Visual
Профиль формата                          : Advanced Simple@L5
Параметр BVOP формата                    : 1
Параметр QPel формата                    : Нет
Параметр GMC формата                     : Без точки перехода
Параметр матрицы формата                 : Выборочная
Идентификатор кодека                     : DX50
Идентификатор кодека/Подсказка           : DivX 5
Продолжительность                        : 51 м.
Битрейт                                  : 1439 Кбит/сек
Ширина                                   : 688 пикселей
Высота                                   : 432 пикселя
Соотношение сторон                       : 16:10
Частота кадров                           : 25,000 кадров/сек
Цветовое пространство                    : YUV
Субдискретизация насыщенности            : 4:2:0
Битовая глубина                          : 8 бит
Тип развёртки                            : Прогрессивная
Метод сжатия                             : С потерями
Бит/(Пиксели*Кадры)                      : 0.194
Размер потока                            : 527 Мбайт (91%)
Библиотека кодирования                   : XviD 1.3.0.dev55

Аудио
Идентификатор                            : 1
Формат                                   : MPEG Audio
Версия формата                           : Version 1
Профиль формата                          : Layer 3
Режим                                    : Joint stereo
Расширение режима                        : MS Stereo
Идентификатор кодека                     : 55
Идентификатор кодека/Подсказка           : MP3
Продолжительность                        : 51 м.
Вид битрейта                             : Постоянный
Битрейт                                  : 128 Кбит/сек
Каналы                                   : 2 канала
Частота                                  : 48,0 КГц
Метод сжатия                             : С потерями
Задержка видео                           : 9 мс.
Размер потока                            : 46,8 Мбайт (8%)
Выравнивание                             : Разделение по промежуткам
Продолжительность промежутка             : 40  мс. (1,00 видеокадр)
Время предзагрузки промежутка            : 500  мс.

12 серия
---------
Полное имя                               : 17-12.avi
Формат                                   : AVI
Формат/Информация                        : Audio Video Interleave
Размер файла                             : 642 Мбайт
Продолжительность                        : 51 м.
Общий поток                              : 1728 Кбит/сек
Библиотека кодирования                   : VirtualDub build 30586/release

Видео
Идентификатор                            : 0
Формат                                   : MPEG-4 Visual
Профиль формата                          : Advanced Simple@L5
Параметр BVOP формата                    : 1
Параметр QPel формата                    : Нет
Параметр GMC формата                     : Без точки перехода
Параметр матрицы формата                 : Выборочная
Идентификатор кодека                     : DX50
Идентификатор кодека/Подсказка           : DivX 5
Продолжительность                        : 51 м.
Битрейт                                  : 1590 Кбит/сек
Ширина                                   : 688 пикселей
Высота                                   : 432 пикселя
Соотношение сторон                       : 16:10
Частота кадров                           : 25,000 кадров/сек
Цветовое пространство                    : YUV
Субдискретизация насыщенности            : 4:2:0
Битовая глубина                          : 8 бит
Тип развёртки                            : Прогрессивная
Метод сжатия                             : С потерями
Бит/(Пиксели*Кадры)                      : 0.214
Размер потока                            : 591 Мбайт (92%)
Библиотека кодирования                   : XviD 1.3.0.dev55

Аудио
Идентификатор                            : 1
Формат                                   : MPEG Audio
Версия формата                           : Version 1
Профиль формата                          : Layer 3
Режим                                    : Joint stereo
Расширение режима                        : MS Stereo
Идентификатор кодека                     : 55
Идентификатор кодека/Подсказка           : MP3
Продолжительность                        : 51 м.
Вид битрейта                             : Постоянный
Битрейт                                  : 128 Кбит/сек
Каналы                                   : 2 канала
Частота                                  : 48,0 КГц
Метод сжатия                             : С потерями
Задержка видео                           : 9 мс.
Размер потока                            : 47,5 Мбайт (7%)
Выравнивание                             : Разделение по промежуткам
Продолжительность промежутка             : 40  мс. (1,00 видеокадр)
Время предзагрузки промежутка            : 500  мс.

Этот торрент недоступен для скачивания без регистрации, однако доступен по публичной magnet-ссылке (источники с публичных трекеров). Перед использованием ссылки прочтите, пожалуйста Пользовательское соглашение, а также как можно дольше оставайтесь на раздаче! Для того, чтобы скачать сам торрент-файл (который видит больше источников), а также для того, чтобы поблагодарить релизера, вам необходимо зарегистрироваться. Если регистрироваться лень - вы можете также попробовать скачать релиз по нашим партнерским ссылкам ниже.

[underverse.su].t34109.torrent
Трекер: Зарегистрирован   [ 12.12.2013 15:01 ]  

Статус: проверено (by 90ytr90 at 12.12.2013 18:55)
Поблагодарили: 3 человека
Тип торрента: публичный - доступные источники с открытых трекеров: 
Размер: 8,18 GB (занимает 1,87 DVDR, для записи нужно 2 болванки DVDR/RW)
 
 
Похожие темы
Форум Тема Автор Торрент Отв. Посл. сооб.
Кино СССР Семнадцать мгновений весны / Серии: 1-12 (Татьяна Лиознова) [1973 г., драма, приключения, военный, история, DVDRip] garry
205 | 24

1 | 803

20

27.11.2012 12:55

% Наше кино [DVD / HDDVD / BD / Remux] Семнадцать мгновений весны (Татьяна Лиознова) [1973 г., военная драма, 6хDVD9 + DVD5] uzi2009
25 | 9

2 | 1774

5

20.05.2014 17:55

Архив Семнадцать мгновений весны (1-12 серии) (Татьяна Лиознова) Цветной [1973 г., драма, приключения, военный, история, SatRip] LAMA
0 | 0

4 | 1285

0

16.06.2011 08:09



Последний раз редактировалось: kesheva (12.12.2013 18:47), всего редактировалось 10 раз(а)

90ytr90 

12-Дек-2013 15:27

Размеры кадра и параметры аудио в сериях отличаются. Необходимо уточнить для каждой серии ... и, соответственно, скриншоты.

Название сериала: Семнадцать мгновений весны

P.S. Прочитав описание, сериал можно не смотреть. :)

kesheva 

12-Дек-2013 16:10

Спасибо. Почти все подправил, кроме скриншотов (небольшая разница в качестве) :)

garry Пол:Муж

22-Янв-2014 12:56

pic

Яндекс.Метрика powered by Sphinx


В Н И М А Н И Е
Сайт не распространяет и не хранит электронные версии произведений, а лишь бесплатно и без коммерческой выгоды (не требуя взамен платы,
SMS и т.д.) предоставляет доступ к создаваемому пользователями каталогу ссылок на торрент-файлы, которые содержат только списки хеш-сумм.
Убедительная просьба с жалобами обращаться напрямую к пользователю, разместившему торрент файл.

Вверх