Loading...
Error

Мачете убивает / Machete Kills (Роберт Родригес) [2013 г., боевик, комедия, HDRip] Dub + Original

Статистика раздачи
Размер:  2,05 GB   |    Зарегистрирован:  2 года 11 месяцев   |    Скачан:  25 раз

Полного источника не было: 1 год 6 месяцев

Сидов:  0  |  0 KB/s  ]   Личеров:  0  |  0 KB/s  ]

* - сиды/пиры с внешних источников

   
 
Автор Сообщение

90ytr90 

09-Дек-2013 02:07

Мачете убивает / Machete Kills
«Наученный убивать. Брошенный умирать. Вернулся спасти мир»

Страна: США, Россия
Год выпуска: 2013
Жанр: боевик, комедия
Продолжительность: 01:47:59
Озвучивание:
  • профессиональное (полное дублирование) [лицензия]
  • оригинальная звуковая дорожка

Режиссёр: Роберт Родригес

В ролях: Дэнни Трехо, Мишель Родригес, София Вергара, Эмбер Хёрд, Леди Гага, Антонио Бандерас, Кьюба Гудинг мл., Джессика Альба, Демиан Бишир, Мэл Гибсон, Чарли Шин, Ванесса Энн Хадженс, Алекса Вега


Сюжет фильма:
Правительство США вербует Мачете для миссии, которую не под силу выполнить простому смертному. Мачете прорывается в Мексику, чтобы схватить безумного лидера карательного отряда и эксцентричного миллиардера, торгующего оружием, который, в свою очередь, лелеет мечту начать войну планетарного масштаба и запустить смертельно опасное оружие в космос. И только Мачете может предотвратить этот глобальный хаос.

  • Премьера (мир) 19 сентября 2013, ...
  • Премьера (РФ) 24 октября 2013, «A Company», «Двадцатый Век Фокс СНГ»
         
Качество видео: HDRip
Формат: AVI
Видео: XviD, 720x384 (1.875), 1934 kbps, 24 fps, 0.291 bit/pixel
Аудио #1: AC3, 448 kbps, 6 ch, 48 kHz, [Russian]
Аудио #2: AC3, 320 kbps, 2 ch, 48 kHz, [English]

picpicpic
Для увеличения картинки щелкните мышкой по превью

General
Complete name : D:\uTorrent\Machete.ubivaet.2013.D.HDRip.2100Mb.avi
Format : AVI
Format/Info : Audio Video Interleave
Format profile : OpenDML
File size : 2.05 GiB
Duration : 1h 47mn
Overall bit rate : 2 720 Kbps
Writing application : VirtualDubMod 1.5.10.3 (build 2550/release)
Writing library : VirtualDubMod build 2550/release

Video
ID : 0
Format : MPEG-4 Visual
Format profile : Advanced Simple@L5
Format settings, BVOP : Yes
Format settings, QPel : No
Format settings, GMC : No warppoints
Format settings, Matrix : Custom
Codec ID : XVID
Codec ID/Hint : XviD
Duration : 1h 47mn
Bit rate : 1 934 Kbps
Width : 720 pixels
Height : 384 pixels
Display aspect ratio : 1.875
Frame rate : 24.000 fps
Resolution : 8 bits
Colorimetry : 4:2:0
Scan type : Progressive
Bits/(Pixel*Frame) : 0.291
Stream size : 1.46 GiB (71%)
Writing library : XviD 1.2.1 (UTC 2008-12-04)

Audio #1
ID : 1
Format : AC-3
Format/Info : Audio Coding 3
Codec ID : 2000
Duration : 1h 47mn
Bit rate mode : Constant
Bit rate : 448 Kbps
Channel(s) : 6 channels
Channel positions : Front: L C R, Surround: L R, LFE
Sampling rate : 48.0 KHz
Stream size : 346 MiB (16%)
Alignment : Split accross interleaves
Interleave, duration : 42 ms (1.00 video frame)
Interleave, preload duration : 500 ms

Audio #2
ID : 2
Format : AC-3
Format/Info : Audio Coding 3
Codec ID : 2000
Duration : 1h 47mn
Bit rate mode : Constant
Bit rate : 320 Kbps
Channel(s) : 2 channels
Channel positions : L R
Sampling rate : 48.0 KHz
Stream size : 247 MiB (12%)
Alignment : Split accross interleaves
Interleave, duration : 42 ms (1.00 video frame)
Interleave, preload duration : 500 ms

Этот торрент недоступен для скачивания без регистрации, однако доступен по публичной magnet-ссылке (источники с публичных трекеров). Перед использованием ссылки прочтите, пожалуйста Пользовательское соглашение, а также как можно дольше оставайтесь на раздаче! Для того, чтобы скачать сам торрент-файл (который видит больше источников), а также для того, чтобы поблагодарить релизера, вам необходимо зарегистрироваться. Если регистрироваться лень - вы можете также попробовать скачать релиз по нашим партнерским ссылкам ниже.

[underverse.su].t33960.torrent
Трекер: Зарегистрирован   [ 09.12.2013 02:07 ]  

Статус: проверено (by garry at 09.12.2013 15:35)
Поблагодарили: пока никто не поблагодарил...
Тип торрента: публичный - доступные источники с открытых трекеров: 
Размер: 2,05 GB (занимает 0,47 DVDR, для записи нужно 1 болванка DVDR/RW)
 
 
Похожие темы
Форум Тема Автор Торрент Отв. Посл. сооб.
Зарубежное кино [DVDRip, Low-Res HDRip, и т.д.] Мачете убивает / Machete Kills (Роберт Родригес) [2013 г., боевик, комедия, HDRip] Dub 90ytr90
8 | 0

0 | 2021

85

09.12.2013 02:02

Зарубежное кино [DVD / HDDVD / BD / Remux] Мачете убивает / Machete Kills (Роберт Родригес / Robert Rodriguez) [2013, боевик, комедия, криминал, Blu-ray disc 1080p] uzi2009
38 | 0

0 | 546

2

21.01.2014 12:01

Зарубежное кино [DVD / HDDVD / BD / Remux] Мачете убивает / Machete Kills (Роберт Родригес / Robert Rodriguez) [2013, боевик, комедия, BD-Remux] [US Transfer] Dub + VO (Д. Есарев) + Original (Eng) + Subs (Eng) uzi2009
3 | 0

0 | 1349

2

05.03.2014 13:35

T Зарубежное кино [HDDVDRip / BDRip / WEB-DL / HDTV 1080/720р] Мачете убивает / Machete Kills (Роберт Родригес) [2013 г., боевик, комедия, HDTV 1080p] Dub (звук с CAMRip) + Original 90ytr90
228 | 53

0 | 334

5

13.11.2013 06:20

T Зарубежное кино [HDDVDRip / BDRip / WEB-DL / HDTV 1080/720р] Мачете убивает / Machete Kills (Роберт Родригес) [2013 г., боевик, комедия, HDTV 720p] Dub (чистый звук) + Original 90ytr90
1 | 0

0 | 1749

76

15.11.2013 16:43

Зарубежное кино [HDDVDRip / BDRip / WEB-DL / HDTV 1080/720р] Мачете убивает / Machete Kills (Роберт Родригес) [2013 г., боевик, комедия, BDRip 720p] Dub 90ytr90
3 | 0

0 | 2205

67

11.12.2013 16:32


Яндекс.Метрика powered by Sphinx


В Н И М А Н И Е
Сайт не распространяет и не хранит электронные версии произведений, а лишь бесплатно и без коммерческой выгоды (не требуя взамен платы,
SMS и т.д.) предоставляет доступ к создаваемому пользователями каталогу ссылок на торрент-файлы, которые содержат только списки хеш-сумм.
Убедительная просьба с жалобами обращаться напрямую к пользователю, разместившему торрент файл.

Вверх