Loading...
Error

Паутина-7 [1-24 серии из 24] (Михаил Галин) [2013 г., Детектив, криминал, боевик, SatRip]

Статистика раздачи
Размер:  12,85 GB   |    Зарегистрирован:  2 года 10 месяцев   |    Скачан:  12 раз

Полного источника не было: 7 месяцев

Сидов:  0  |  0 KB/s  ]   Личеров:  0  |  0 KB/s  ]

* - сиды/пиры с внешних источников

   
 
Автор Сообщение

nemos Пол:Муж

09-Дек-2013 00:14

Паутина-7


Год выпуска: 2013
Жанр: Детектив, криминал, боевик
Страна: Украина
Режиссер: Михаил Галин
В ролях: Александр Толубаев, Александр Кузьмин (IV), Александр Воронов, Андрей Москвичёв, Александра Артемьева, Николай Бендера, Венчислав Хотяновский, Борис Полунин, Михаил Куряев, Валерия Богук, Олег Граф, Алексей Долгушин, Ольга Стрелецкая, Лейла Кирилова
Сюжет фильма:
Паутина-7 — продолжение нашумевшего и популярного сериала о работниках оперативного отдела полиции. Майор Федор Туманов – недоверчивый и скептичный оперативник. Он привык никому не доверять, ведь на него постоянно охотятся бандиты и криминальные авторитеты. Раз за разом майор Туманов, потянув за ниточку, распутывает узлы, хитро заплетённые криминалом. Снова и снова Туманову приходится быстро думать и мгновенно принимать решения, особенно тогда, когда его карьера может разрушиться в любой момент.
Качество видео: SatRip

Продолжительность: 00:46:20 серия
Формат: AVI
Видео: XviD, 704x368, 1 571kbps
Аудио: русский, MP3 2.0, 192 kbps

Код:

E:\Фильмы (раздача)\Паутина-7 (2013)\Паутина-7.(24.seriya).2013.XviD.SATRip.by.simka.avi
   General
      Complete name : E:\Фильмы (раздача)\Паутина-7 (2013)\Паутина-7.(24.seriya).2013.XviD.SATRip.by.simka.avi
      Format : AVI
      Format/Info : Audio Video Interleave
      File size : 588 MiB
      Duration : 46mn 20s
      Overall bit rate : 1 773 Kbps
      Writing application : VirtualDubModRus 1.5.10.2 (build 2542/release)
      Writing library : VirtualDubMod build 2542/release
   Video #0
      ID : 0
      Format : MPEG-4 Visual
      Format profile : Advanced Simple@L5
      Format settings, BVOP : 1
      Format settings, QPel : No
      Format settings, GMC : No warppoints
      Format settings, Matrix : Default (H.263)
      Codec ID : XVID
      Codec ID/Hint : XviD
      Duration : 46mn 20s
      Bit rate : 1 571 Kbps
      Width : 704 pixels
      Height : 368 pixels
      Display aspect ratio : 1.913
      Frame rate : 25.000 fps
      Color space : YUV
      Chroma subsampling : 4:2:0
      Bit depth : 8 bits
      Scan type : Progressive
      Compression mode : Lossy
      Bits/(Pixel*Frame) : 0.243
      Stream size : 521 MiB (89%)
      Writing library : XviD 1.2.1 (UTC 2008-12-04)
   Audio #1
      ID : 1
      Format : MPEG Audio
      Format version : Version 1
      Format profile : Layer 3
      Mode : Joint stereo
      Mode extension : MS Stereo
      Codec ID : 55
      Codec ID/Hint : MP3
      Duration : 46mn 20s
      Bit rate mode : Constant
      Bit rate : 192 Kbps
      Channel(s) : 2 channels
      Sampling rate : 48.0 KHz
      Compression mode : Lossy
      Stream size : 63.7 MiB (11%)
      Alignment : Aligned on interleaves
      Interleave, duration : 40 ms (1.00 video frame)
      Interleave, preload duration : 504 ms
      Writing library : LAME3.99r
      Encoding settings : -m j -V 4 -q 2 -lowpass 18.6 -b 192
Семпл: http://multi-up.com/930783

picpicpicpicpicpicpicpicpicpic
Для увеличения картинки щелкните мышкой по превью

Этот торрент недоступен для скачивания без регистрации, однако доступен по публичной magnet-ссылке (источники с публичных трекеров). Перед использованием ссылки прочтите, пожалуйста Пользовательское соглашение, а также как можно дольше оставайтесь на раздаче! Для того, чтобы скачать сам торрент-файл (который видит больше источников), а также для того, чтобы поблагодарить релизера, вам необходимо зарегистрироваться. Если регистрироваться лень - вы можете также попробовать скачать релиз по нашим партнерским ссылкам ниже.

[underverse.su].t35182.torrent
Трекер: Зарегистрирован   [ 13.01.2014 12:59 ]  

Статус: проверено (by 90ytr90 at 13.01.2014 15:09)
Поблагодарили: 1 человек
Тип торрента: публичный - доступные источники с открытых трекеров: 
Размер: 12,85 GB (занимает 2,93 DVDR, для записи нужно 3 болванки DVDR/RW)
 
 


Последний раз редактировалось: nemos (06.11.2014 09:37), всего редактировалось 6 раз(а)

Яндекс.Метрика powered by Sphinx


В Н И М А Н И Е
Сайт не распространяет и не хранит электронные версии произведений, а лишь бесплатно и без коммерческой выгоды (не требуя взамен платы,
SMS и т.д.) предоставляет доступ к создаваемому пользователями каталогу ссылок на торрент-файлы, которые содержат только списки хеш-сумм.
Убедительная просьба с жалобами обращаться напрямую к пользователю, разместившему торрент файл.

Вверх