Loading...
Error

Вместе навсегда / Таиланд (1-4 серия из 4) (Александр Березань) [2013 г., Боевик, SatRip]

Статистика раздачи
Размер:  2,39 GB   |    Зарегистрирован:  2 года 11 месяцев   |    Скачан:  17 раз

Полного источника не было: 26 дней

Сидов:  0  |  0 KB/s  ]   Личеров:  0  |  0 KB/s  ]

* - сиды/пиры с внешних источников

   
 
Автор Сообщение

nemos Пол:Муж

08-Дек-2013 22:38



Год выпуска: 2013
Жанр: Боевик
Страна: Украина
Режиссер: Александр Березань
В ролях: Павел Трубинер, София Березань, Анастасия Безрук, Дмитрий Фрид, Ли Берлинская, Азиз Бейшеналиев
Сюжет фильма:
После смерти Наташи в жизни ее мужа Александра остается единственная радость – их общая дочь Соня. Спустя год после трагедии Саша привозит Соню отпраздновать день рождения в Таиланд, в отель, где много лет назад он познакомился с ее матерью. Но в Таиланде вместо райского отдыха их подстерегают опасности. Дочке тайского мафиози срочно нужен донор сердца, а русская девочка идеально подходит по всем параметрам. Отцы готовы на всё ради счастья своих дочерей. Чья любовь окажется сильнее?
Качество видео: SatRip

Продолжительность: 00:42:25 серия
Формат: AVI
Видео: DivX, 704x384, 1850 kbps
Аудио: русский, MP3 2.0, 128 kbps

Код:

E:\Фильмы (роздача)\Vmeste.navsegda.2013.DivX.SATRip\Vmeste.navsegda.(4.serija.iz.4).2013.DivX.SATRip.avi
   General
      Complete name : E:\Фильмы (роздача)\Vmeste.navsegda.2013.DivX.SATRip\Vmeste.navsegda.(4.serija.iz.4).2013.DivX.SATRip.avi
      Format : AVI
      Format/Info : Audio Video Interleave
      File size : 603 MiB
      Duration : 42mn 25s
      Overall bit rate : 1 987 Kbps
      Writing library : Boilsoft AVI tool build 1/release
   Video #0
      ID : 0
      Format : MPEG-4 Visual
      Format settings, BVOP : 1
      Format settings, QPel : No
      Format settings, GMC : No warppoints
      Format settings, Matrix : Default (H.263)
      Muxing mode : Packed bitstream
      Codec ID : DX50
      Codec ID/Hint : DivX 5
      Duration : 42mn 25s
      Bit rate : 1 850 Kbps
      Width : 704 pixels
      Height : 384 pixels
      Display aspect ratio : 1.85:1
      Frame rate : 25.000 fps
      Color space : YUV
      Chroma subsampling : 4:2:0
      Bit depth : 8 bits
      Scan type : Progressive
      Compression mode : Lossy
      Bits/(Pixel*Frame) : 0.274
      Stream size : 561 MiB (93%)
      Writing library : DivX 6.8.5 (UTC 2009-08-20)
   Audio #1
      ID : 1
      Format : MPEG Audio
      Format version : Version 1
      Format profile : Layer 3
      Mode : Joint stereo
      Mode extension : MS Stereo
      Codec ID : 55
      Codec ID/Hint : MP3
      Duration : 42mn 25s
      Bit rate mode : Constant
      Bit rate : 128 Kbps
      Channel(s) : 2 channels
      Sampling rate : 48.0 KHz
      Compression mode : Lossy
      Stream size : 38.8 MiB (6%)
      Alignment : Split accross interleaves
      Interleave, duration : 40 ms (1.00 video frame)
      Interleave, preload duration : 500 ms
Семпл: http://multi-up.com/930763

picpicpicpicpicpicpicpicpicpicpic
Для увеличения картинки щелкните мышкой по превью

Этот торрент недоступен для скачивания без регистрации, однако доступен по публичной magnet-ссылке (источники с публичных трекеров). Перед использованием ссылки прочтите, пожалуйста Пользовательское соглашение, а также как можно дольше оставайтесь на раздаче! Для того, чтобы скачать сам торрент-файл (который видит больше источников), а также для того, чтобы поблагодарить релизера, вам необходимо зарегистрироваться. Если регистрироваться лень - вы можете также попробовать скачать релиз по нашим партнерским ссылкам ниже.

[underverse.su].t33956.torrent
Трекер: Зарегистрирован   [ 08.12.2013 23:13 ]  

Статус: проверено (by garry at 08.12.2013 23:28)
Поблагодарили: 4 человека
Тип торрента: публичный - доступные источники с открытых трекеров: 
Размер: 2,39 GB (занимает 0,55 DVDR, для записи нужно 1 болванка DVDR/RW)
 
 


Последний раз редактировалось: nemos (09.12.2013 14:57), всего редактировалось 6 раз(а)

nemos Пол:Муж

08-Дек-2013 23:20

Примечание: на " Кинопоиске" пока данных нет! Информация подлежит обновлению. А пока могу поделиться информацией http://www.kino-teatr.ru/kino/movie/post/107672/annot/

Яндекс.Метрика powered by Sphinx


В Н И М А Н И Е
Сайт не распространяет и не хранит электронные версии произведений, а лишь бесплатно и без коммерческой выгоды (не требуя взамен платы,
SMS и т.д.) предоставляет доступ к создаваемому пользователями каталогу ссылок на торрент-файлы, которые содержат только списки хеш-сумм.
Убедительная просьба с жалобами обращаться напрямую к пользователю, разместившему торрент файл.

Вверх