Loading...
Error

Эквилибриум / Equilibrium (Курт Уиммер / Kurt Wimmer) [2002 г., фантастика, боевик, триллер, BDRip] Dub + Orirginal HQ Underverse

Статистика раздачи
Размер:  2,17 GB   |    Зарегистрирован:  3 года   |    Скачан:  51 раз

Полного источника не было: 2 дня 4 часа

Сидов:  0  |  0 KB/s  ]   Личеров:  0  |  0 KB/s  ]

* - сиды/пиры с внешних источников

   
 
Автор Сообщение

HQ Underverse 

08-Дек-2013 11:47

Эквилибриум / Equilibrium


Год выпуска: 2002
Жанр: фантастика, боевик, триллер
Страна: США
Режиссер: Курт Уиммер / Kurt Wimmer
В ролях: Кристиан Бэйл (John Preston), Тэй Диггз (Brandt), Энгус МакФадьен (Dupont), Шон Бин (Partridge), Эмили Уотсон (Mary O'Brien), Уильям Фихтнер (Jurgen), Мэттью Харбор (Robbie Preston), Эмили Сьеверт (Lisa Preston), Шон Пертуи (Father), Доминик Пурселл (Seamus), Кристиан Карманн (Officer in Charge), Джон Кеог (Chemist)
Сюжет фильма:
Действие происходит в будущем, когда люди лишены возможности выражать какие-то эмоции, потому, что они… запрещены. Это — та цена, которую человечество платит за устранение из своей жизни войны. Теперь книги, искусство и музыка находятся вне закона. А любое чувство — уже преступление, наказуемое смертью.
Для проведения в жизнь существующего правила используется принудительное применение лекарства «прозиум». Правительственный агент Джон Престон борется с теми, кто нарушает правила. В один прекрасный момент он забывает принять очередную дозу лекарства и с ним происходит духовное превращение, что приводит его к противоречию с самим собой и с начальством.

  • Мировая премьера: 6 декабря 2002
  • Российская премьера: 27 февраля 2003


Качество видео: BDRip

Продолжительность: 01:46:50
Формат: avi
Видео: XviD, 720x400, 2123 kbps
Аудио #1: русский, дублированный [лицензия], AC3 5.1, 384 kbps
Аудио #2: английский, оригинал, AC3 5.1, 384 kbps

Код:

General
Complete name                    : D:\Video\Movies\Releases\Equilibrium.2002.BDRip.XviD.AC3.Rus.D.Eng.O.HQ.Underverse.avi
Format                           : AVI
Format/Info                      : Audio Video Interleave
Format profile                   : OpenDML
File size                        : 2.17 GiB
Duration                         : 1h 46mn
Overall bit rate                 : 2 909 Kbps
Writing application              : VirtualDubMod 1.5.10.2 (build 2540/release)
Writing library                  : VirtualDubMod build 2540/release

Video
ID                               : 0
Format                           : MPEG-4 Visual
Format profile                   : Streaming Video@L1
Format settings, BVOP            : Yes
Format settings, QPel            : No
Format settings, GMC             : No warppoints
Format settings, Matrix          : Custom
Muxing mode                      : Packed bitstream
Codec ID                         : XVID
Codec ID/Hint                    : XviD
Duration                         : 1h 46mn
Bit rate                         : 2 124 Kbps
Width                            : 720 pixels
Height                           : 400 pixels
Display aspect ratio             : 16/9
Frame rate                       : 23.976 fps
Resolution                       : 24 bits
Colorimetry                      : 4:2:0
Scan type                        : Progressive
Bits/(Pixel*Frame)               : 0.308
Stream size                      : 1.58 GiB (73%)
Writing library                  : XviD 64

Audio #1
ID                               : 1
Format                           : AC-3
Format/Info                      : Audio Coding 3
Codec ID                         : 2000
Duration                         : 1h 46mn
Bit rate mode                    : Constant
Bit rate                         : 384 Kbps
Channel(s)                       : 6 channels
Channel positions                : Front: L C R, Surround: L R, LFE
Sampling rate                    : 48.0 KHz
Stream size                      : 293 MiB (13%)
Alignment                        : Split accross interleaves
Interleave, duration             : 42 ms (1.00 video frame)
Interleave, preload duration     : 500 ms
Title                            : Equilibrium.2002.Rus.Dub.AC3.5.1.384.kbps.HQ.Underverse

Audio #2
ID                               : 2
Format                           : AC-3
Format/Info                      : Audio Coding 3
Codec ID                         : 2000
Duration                         : 1h 46mn
Bit rate mode                    : Constant
Bit rate                         : 384 Kbps
Channel(s)                       : 6 channels
Channel positions                : Front: L C R, Surround: L R, LFE
Sampling rate                    : 48.0 KHz
Stream size                      : 293 MiB (13%)
Alignment                        : Split accross interleaves
Interleave, duration             : 42 ms (1.00 video frame)
Interleave, preload duration     : 500 ms
Title                            : Equilibrium.2002.Eng.O.AC3.5.1.384.kbps.HQ.Underverse

Семпл: http://multi-up.com/930567

Релиз группы:

picpicpic
Для увеличения картинки щелкните мышкой по превью

Этот торрент недоступен для скачивания без регистрации, однако доступен по публичной magnet-ссылке (источники с публичных трекеров). Перед использованием ссылки прочтите, пожалуйста Пользовательское соглашение, а также как можно дольше оставайтесь на раздаче! Для того, чтобы скачать сам торрент-файл (который видит больше источников), а также для того, чтобы поблагодарить релизера, вам необходимо зарегистрироваться. Если регистрироваться лень - вы можете также попробовать скачать релиз по нашим партнерским ссылкам ниже.

[underverse.su].t33938.torrent
Трекер: Зарегистрирован   [ 08.12.2013 11:47 ]  

Статус: проверено (by Паукан at 08.12.2013 17:45)
Поблагодарили: 3 человека
Тип торрента: публичный - доступные источники с открытых трекеров: 
Размер: 2,17 GB (занимает 1/2 DVDR, для записи нужно 1 болванка DVDR/RW)
 
 
Похожие темы
Форум Тема Автор Торрент Отв. Посл. сооб.
Зарубежное кино [DVDRip, Low-Res HDRip, и т.д.] Эквилибриум / Equilibrium (Курт Уиммер) [2002 г., фантастика, боевик, триллер, драма, HDRip-AVC] Dub garry
1 | 0

0 | 352

10

20.12.2012 23:26

Зарубежное кино [DVDRip, Low-Res HDRip, и т.д.] Эквилибриум / Equilibrium (Курт Виммер / Kurt Wimmer) [2002 г., боевик, фантастика, BDRip-AVC] Dub + MVO + AVO (Живов) + AVO (Королев) + Original (Eng) + Sub (Rus, Eng) 90ytr90
42 | 9

0 | 253

6

31.01.2015 21:39


Яндекс.Метрика powered by Sphinx


В Н И М А Н И Е
Сайт не распространяет и не хранит электронные версии произведений, а лишь бесплатно и без коммерческой выгоды (не требуя взамен платы,
SMS и т.д.) предоставляет доступ к создаваемому пользователями каталогу ссылок на торрент-файлы, которые содержат только списки хеш-сумм.
Убедительная просьба с жалобами обращаться напрямую к пользователю, разместившему торрент файл.

Вверх