Loading...
Error

Клад могилы Чингисхана / Серии: 1-4 (4) (Олег Курамшин) [2013 г., Приключения, SatRip]

Статистика раздачи
Размер:  2,01 GB   |    Зарегистрирован:  3 года   |    Скачан:  35 раз
Сидов:  1  |  0 KB/s  ]   Личеров:  0  |  0 KB/s  ]

* - сиды/пиры с внешних источников

   
 
Автор Сообщение

nemos Пол:Муж

07-Дек-2013 20:49

Клад могилы Чингисхана


Год выпуска: 2013
Жанр: Приключения
Страна: Россия
Режиссер: Олег Курамшин
В ролях: Сергей Карякин, Николай Бердера, Александра Третьякова, Егор Пежемский
Сюжет фильма:
В хранилище Музея Азии в одном крупном сибирском городе найден древний манускрипт. В нем описано, как найти клад Чингисхана - тонны старинного золота, закопанные в тайге. К поискам привлечен Данила Черский - бывший сотрудник ФСО, патриот и человек чести. Но кроме Данилы о кладе узнал бизнесмен Погодин из Москвы. Он дал команду своим "псам" - Зинчуку и Логуну - уничтожать всех, кто знал о сокровище. Сам же Погодин организовал раскопки.


Качество видео: SatRip

Продолжительность: 00:43:27 серия
Формат: AVI
Видео: XviD, 720x400, 1 495 kbps
Аудио: русский, MP3 2.0, 128 kbps

Код:

E:\Фильмы (роздача)\Klad.mogily.Chingizhana\Klad.mogily.Chingizhana.04.avi
   General
      Complete name : E:\Фильмы (роздача)\Klad.mogily.Chingizhana\Klad.mogily.Chingizhana.04.avi
      Format : AVI
      Format/Info : Audio Video Interleave
      File size : 507 MiB
      Duration : 43mn 27s
      Overall bit rate : 1 633 Kbps
      Writing library : VirtualDub build 32842/release
   Video #0
      ID : 0
      Format : MPEG-4 Visual
      Format profile : Advanced Simple@L5
      Format settings, BVOP : 2
      Format settings, QPel : No
      Format settings, GMC : No warppoints
      Format settings, Matrix : Default (H.263)
      Muxing mode : Packed bitstream
      Codec ID : XVID
      Codec ID/Hint : XviD
      Duration : 43mn 27s
      Bit rate : 1 495 Kbps
      Width : 720 pixels
      Height : 400 pixels
      Display aspect ratio : 16:9
      Frame rate : 25.000 fps
      Color space : YUV
      Chroma subsampling : 4:2:0
      Bit depth : 8 bits
      Scan type : Progressive
      Compression mode : Lossy
      Bits/(Pixel*Frame) : 0.208
      Stream size : 465 MiB (92%)
      Writing library : XviD 1.2.1 (UTC 2008-12-04)
   Audio #1
      ID : 1
      Format : MPEG Audio
      Format version : Version 1
      Format profile : Layer 3
      Mode : Joint stereo
      Mode extension : MS Stereo
      Codec ID : 55
      Codec ID/Hint : MP3
      Duration : 43mn 27s
      Bit rate mode : Constant
      Bit rate : 128 Kbps
      Channel(s) : 2 channels
      Sampling rate : 48.0 KHz
      Compression mode : Lossy
      Stream size : 39.8 MiB (8%)
      Alignment : Split accross interleaves
      Interleave, duration : 40 ms (1.00 video frame)
      Interleave, preload duration : 500 ms
Семпл: http://multi-up.com/930393

picpicpicpicpicpicpicpicpicpicpicpicpicpic
Для увеличения картинки щелкните мышкой по превью

Этот торрент недоступен для скачивания без регистрации, однако доступен по публичной magnet-ссылке (источники с публичных трекеров). Перед использованием ссылки прочтите, пожалуйста Пользовательское соглашение, а также как можно дольше оставайтесь на раздаче! Для того, чтобы скачать сам торрент-файл (который видит больше источников), а также для того, чтобы поблагодарить релизера, вам необходимо зарегистрироваться. Если регистрироваться лень - вы можете также попробовать скачать релиз по нашим партнерским ссылкам ниже.

[underverse.su].t33923.torrent
Трекер: Зарегистрирован   [ 07.12.2013 20:49 ]  

Статус: проверено (by 90ytr90 at 08.12.2013 08:01)
Поблагодарили: 3 человека
Тип торрента: публичный - доступные источники с открытых трекеров: 
Размер: 2,01 GB (занимает 0,46 DVDR, для записи нужно 1 болванка DVDR/RW)
 
 

90ytr90 

08-Дек-2013 08:01

Будем считать, что kinopoisk ошибается :twisted: .

Яндекс.Метрика powered by Sphinx


В Н И М А Н И Е
Сайт не распространяет и не хранит электронные версии произведений, а лишь бесплатно и без коммерческой выгоды (не требуя взамен платы,
SMS и т.д.) предоставляет доступ к создаваемому пользователями каталогу ссылок на торрент-файлы, которые содержат только списки хеш-сумм.
Убедительная просьба с жалобами обращаться напрямую к пользователю, разместившему торрент файл.

Вверх