Loading...
Error

Друзья / Friends / Сезон 6 / Серии 1-24 из 24 (David Crane, Marta Kauffman) [2000, Комедия, BDRip] MVO (РТР)

Страницы:  1, 2  След.   

Статистика раздачи
Размер:  6,23 GB   |    Зарегистрирован:  2 года 11 месяцев   |    Скачан:  10 раз

Полного источника не было: 2 года 4 месяца

Сидов:  0  |  0 KB/s  ]   Личеров:  0  |  0 KB/s  ]

* - сиды/пиры с внешних источников

   
 
Автор Сообщение

evropium Пол:Муж

07-Дек-2013 14:36

Друзья / Friends / Сезон 6 / Серии 1-24 из 24(David Crane, Marta Kauffman) [2000, Комедия, BDRip] MVO (РТР)


Год выпуска: 1999-2000
Жанр: комедия
Страна: США
В ролях: Дженнифер Энистон, Кортни Кокс-Аркет, Лиза Кудроу, Мэтт ЛеБлан, Мэттью Перри, Дэвид Швиммер

Режиссер: Дэвид Крэйн, Марта Кауффман / David Crane, Marta Kauffman
Сюжет фильма:
Шесть героев – три очаровательные девушки, и трое симпатичных молодых людей – закадычные друзья. И вокруг этой крепкой компании строится бесконечное количество разных историй: у друзей случаются романы, они ссорятся и мирятся. Но молодежь не может быть до конца серьезной, так что друзья не упускают случая пошутить, а чувство юмора у них отменное.
Качество видео: BDRip

Продолжительность: ~ 00:25:00
Формат: AVI
Видео: XviD, 720x400 , 1 472 Kbps
Аудио: русский, многоголосый закадровый [профессиональный], MP3 2.0, 128kbps

Код:

General
Complete name                  : C:\Users\FATAL\Downloads\Friends.S06.BDRip.by.evropium\Friends.s06e02.Эпизод, в котором Росс обнимает Рэйчел.avi
Format                         : AVI
Format/Info                    : Audio Video Interleave
File size                      : 256 MiB
Duration                       : 21mn 57s
Overall bit rate               : 1 627 Kbps
Writing application            : Lavf51.12.1

Video
ID                             : 0
Format                         : xvid
Codec ID                       : xvid
Duration                       : 21mn 57s
Bit rate                       : 1 487 Kbps
Width                          : 720 pixels
Height                         : 400 pixels
Display aspect ratio           : 16:9
Frame rate                     : 23.976 fps
Bits/(Pixel*Frame)             : 0.215
Stream size                    : 234 MiB (91%)

Audio
ID                             : 1
Format                         : MPEG Audio
Format version                 : Version 1
Format profile                 : Layer 3
Mode                           : Joint stereo
Mode extension                 : MS Stereo
Codec ID                       : 55
Codec ID/Hint                  : MP3
Duration                       : 21mn 57s
Bit rate mode                  : Constant
Bit rate                       : 128 Kbps
Channel(s)                     : 2 channels
Sampling rate                  : 44.1 KHz
Compression mode               : Lossy
Stream size                    : 20.1 MiB (8%)
Alignment                      : Aligned on interleaves
Interleave, duration           : 26 ms (0.63 video frame)
Interleave, preload duration   : 26 ms
Writing library                : LAME3.97ЄЄЄЄЄЄЄЄЄЄЄЄ

Codec ID     
picpicpic
Для увеличения картинки щелкните мышкой по превью

Этот торрент недоступен для скачивания без регистрации, однако доступен по публичной magnet-ссылке (источники с публичных трекеров). Перед использованием ссылки прочтите, пожалуйста Пользовательское соглашение, а также как можно дольше оставайтесь на раздаче! Для того, чтобы скачать сам торрент-файл (который видит больше источников), а также для того, чтобы поблагодарить релизера, вам необходимо зарегистрироваться. Если регистрироваться лень - вы можете также попробовать скачать релиз по нашим партнерским ссылкам ниже.

[underverse.su].t33932.torrent
Трекер: Зарегистрирован   [ 09.12.2013 06:15 ]  

Статус: % на проверке (by garry at 10.12.2013 22:23)
Поблагодарили: 3 человека
Тип торрента: публичный - доступные источники с открытых трекеров: 
Размер: 6,23 GB (занимает 1,42 DVDR, для записи нужно 2 болванки DVDR/RW)
 
 
Похожие темы
Форум Тема Автор Торрент Отв. Посл. сооб.
% Зарубежные сериалы Друзья / Friends / Сезон 7 / Серии 1-24 из 24 (David Crane, Marta Kauffman) [2001, Комедия, BDRip] MVO (РТР) evropium
0 | 0

1 | 1880

14

11.09.2015 21:52

Зарубежные сериалы Друзья / Friends / Сезон 8 / Серии 1-24 из 24 (David Crane, Marta Kauffman) [2002, Комедия, BDRip] MVO (РТР) evropium
0 | 1

2 | 1897

12

20.11.2015 14:37

% Зарубежные сериалы Друзья / Friends / Сезон 9 / Серии 1-24 из 24 (David Crane, Marta Kauffman) [2003, Комедия, BDRip] MVO (РТР) evropium
0 | 1

0 | 1839

12

12.12.2013 20:07

% Зарубежные сериалы Друзья / Friends / Сезон 10 / Серии 1-18 из 18 ( David Crane, Marta Kauffman)[2004, комедия, BDRip] MVO (РТР-ТНТ) evropium
0 | 0

0 | 756

9

19.01.2014 11:38

TV Series Друзья / Friends / Season 1-10 (David Crane, Marta Kauffman) [1994-2004 г., Комедия, DVDRip] Mahone
0 | 0

9 | 4618

0

10.09.2012 10:46



Последний раз редактировалось: evropium (11.12.2013 19:42), всего редактировалось 10 раз(а)

evropium Пол:Муж

07-Дек-2013 15:11

Удалите тему, я ее переоформлю :oops:

garry Пол:Муж

07-Дек-2013 18:32

evropium
так эту можно отредактировать. зачем удалять.

evropium Пол:Муж

08-Дек-2013 05:19

:D кажется все, отполировал до блеска))

garry Пол:Муж

08-Дек-2013 10:49

evropium
ну как для первого раза неплохо 8)
Недочеты:

Цитата:

Друзья / Friends / Сезон 6 / Серии 1-25 [BDRip] MVO (РТР)
"шапка" (название релиза) не хватает некоторой информации. пример:

Цитата:

Почти человек / Almost Human (Джей Джей Абрамс, Брэд Андерсон, Брайан Берк) [2013 г., фантастика, боевик, WEB-DLRip] MVO

Цитата:

Год выпуска: 2000
нужно указать период, с какого выходил даный сезон. в конкретном случае - 1999-2000

Цитата:

Режиссер: (David Crane, Marta Kauffman)
режиссеров не нужно брать в скобки

Цитата:

Отчет MediaInfo
отчет МИ скопирован не до конца, поэтому трудно понять с каким качеством звуковая дорожка)
скриншоты сделаны в .jpg. лучше делать .png, этот формат лучше отображает качество раздаваемого материала нежели .jpg. а то глядя на эти скриншоты создается впечатление, что весь сериал в квадратах)

evropium Пол:Муж

08-Дек-2013 12:46

чем дальше редактирую , тем страшней)) куча тэгов , шаблон пропал...давайте удалим все ... и вам хорошо и мне приятно)),

garry Пол:Муж

08-Дек-2013 14:49

evropium
и что потом каждый раз удалять потому что "я не знаю как, что и где"? пару раз вот так вот отредактировать, а потом все будет ОК.

evropium Пол:Муж

09-Дек-2013 19:55

Вы прям вселяете надежду и пробуждаете интузиазм :)

evropium Пол:Муж

09-Дек-2013 20:06

evropium писал(а):

Вы прям вселяете надежду и пробуждаете интузиазм :)
скриншоты сделаны в .jpg. лучше делать .png...воот тут , геммор, пусть останутся в .jpg следующие раздачи буду монтировать в png.. спасибо

garry Пол:Муж

09-Дек-2013 20:23

Цитата:

воот тут , геммор, пусть останутся в .jpg следующие раздачи буду монтировать в png.. спасибо
геммор сделать? или геммор сделанные залить вместо этих?)

evropium Пол:Муж

09-Дек-2013 21:18

gari писал(а):

Цитата:

воот тут , геммор, пусть останутся в .jpg следующие раздачи буду монтировать в png.. спасибо
геммор сделать? или геммор сделанные залить вместо этих?)
пусть будет так как есть, раздача вообще первая моя , не только на этом трекере, а вообще ,и сделана потом и руками)) будет , что вспомнить на свалке) :Yahoo!:

garry Пол:Муж

09-Дек-2013 21:24

Цитата:

пусть будет так как есть, раздача вообще первая моя , не только на этом трекере, а вообще ,и сделана потом и руками)) будет , что вспомнить на свалке)
ну допустим сейчас будет так. а как в будущем сделать .пнг знаете?

evropium Пол:Муж

10-Дек-2013 06:26

gari писал(а):

Цитата:

пусть будет так как есть, раздача вообще первая моя , не только на этом трекере, а вообще ,и сделана потом и руками)) будет , что вспомнить на свалке)
ну допустим сейчас будет так. а как в будущем сделать .пнг знаете?
неа, не знаю, но обязательно узнаю, весь мир в труху....но потом!))

garry Пол:Муж

10-Дек-2013 22:23

Цитата:

C:\Users\FATAL\Downloads\Friends.S08.BDRip.by.evropium\Friends.s08e02.Эпизод с красным свитером.avi
МИ предоставлен для другого видеофайла (не из 6-го сезона).

Цитата:

Friends.S08.BDRip.by.evropium
рип Ваш получается?

evropium Пол:Муж

11-Дек-2013 19:48

gari писал(а):

Цитата:

C:\Users\FATAL\Downloads\Friends.S08.BDRip.by.evropium\Friends.s08e02.Эпизод с красным свитером.avi
МИ предоставлен для другого видеофайла (не из 6-го сезона).

Цитата:

Friends.S08.BDRip.by.evropium
рип Ваш получается?
точно подмечено
General
Complete name : C:\Users\FATAL\Downloads\Friends.S06.BDRip.by.evropium\Friends.s06e02.Эпизод, в котором Росс обнимает Рэйчел.avi
Format : AVI
Format/Info : Audio Video Interleave
File size : 256 MiB
Duration : 21mn 57s
Overall bit rate : 1 627 Kbps
Writing application : Lavf51.12.1

Video
ID : 0
Format : xvid
Codec ID : xvid
Duration : 21mn 57s
Bit rate : 1 487 Kbps
Width : 720 pixels
Height : 400 pixels
Display aspect ratio : 16:9
Frame rate : 23.976 fps
Bits/(Pixel*Frame) : 0.215
Stream size : 234 MiB (91%)

Audio
ID : 1
Format : MPEG Audio
Format version : Version 1
Format profile : Layer 3
Mode : Joint stereo
Mode extension : MS Stereo
Codec ID : 55
Codec ID/Hint : MP3
Duration : 21mn 57s
Bit rate mode : Constant
Bit rate : 128 Kbps
Channel(s) : 2 channels
Sampling rate : 44.1 KHz
Compression mode : Lossy
Stream size : 20.1 MiB (8%)
Alignment : Aligned on interleaves
Interleave, duration : 26 ms (0.63 video frame)
Interleave, preload duration : 26 ms
Writing library : LAME3.97ЄЄЄЄЄЄЄЄЄЄЄЄ

Цитата:

Friends.S08.BDRip.by.evropium
рип Ваш получается?[/quote]
Так , да...получился, мудрый учитель попался :oops:

Яндекс.Метрика powered by Sphinx


В Н И М А Н И Е
Сайт не распространяет и не хранит электронные версии произведений, а лишь бесплатно и без коммерческой выгоды (не требуя взамен платы,
SMS и т.д.) предоставляет доступ к создаваемому пользователями каталогу ссылок на торрент-файлы, которые содержат только списки хеш-сумм.
Убедительная просьба с жалобами обращаться напрямую к пользователю, разместившему торрент файл.

Вверх