Loading...
Error

Бал вампиров / Dance of the Vampires (Роман Полански / Roman Polanski) [1967 г., ужасы, комедия, HDTVRip] MVO

Статистика раздачи
Размер:  1,46 GB   |    Зарегистрирован:  3 года   |    Скачан:  9 раз

Полного источника не было: 8 дней

Сидов:  0  |  0 KB/s  ]   Личеров:  0  |  0 KB/s  ]

* - сиды/пиры с внешних источников

   
 
Автор Сообщение

garry Пол:Муж

04-Дек-2013 16:12

Бал вампиров / Dance of the Vampires


Год выпуска: 1967
Жанр: ужасы, комедия
Страна: США , Великобритания
Режиссер: Роман Полански / Roman Polanski
В ролях: Джек МакГоурэн, Роман Полански, Элфи Бэсс, Джесси Робин, Шарон Тейт, Ферди Мэйн, Иэн Кворрир, Терри Даунс, Фиона Льюис, Рональд Лейси
Сюжет фильма:
Профессор Абронзиус и его неопытный ассистент Альфред отправляются в Трансильванию, их цель- охота на вампиров. В заснеженных Карпатах, на постоялом дворе, где они остановились, Альфред знакомится с дочерью хозяина — прекрасной Сарой.
Это знакомство было недолгим: коварный вампир похитил рыжеволосую красавицу и унес ее в свой мрачный замок в горах. Профессор и Альфред нашли прибежище нечисти. Удастся ли им перехитрить кровососов и спасти Сару, пока она сама не превратится в вампиршу?

  • Мировая премьера: 13 ноября 1967


Качество видео: HDTVRip

Продолжительность: 01:47:24
Формат: AVI
Видео: XviD, 720x304, 1742 kbps
Аудио: русский, многоголосый закадровый [профессиональный], AC3 2.0, 192 kbps

Код:

General
 Complete name : Dance.of.the.Vampires.1967.DVDRip.Xvid.AC3-Zombie.Lee.avi
 Format : AVI
 Format/Info : Audio Video Interleave
 File size : 1.46 GiB
 Duration : 1h 47mn
 Overall bit rate : 1 943 Kbps
 Writing library : VirtualDub build 33790/release

Video
 ID : 0
 Format : MPEG-4 Visual
 Format profile : Advanced Simple@L5
 Format settings, BVOP : 1
 Format settings, QPel : No
 Format settings, GMC : No warppoints
 Format settings, Matrix : Custom
 Codec ID : XVID
 Codec ID/Hint : XviD
 Duration : 1h 47mn
 Bit rate : 1 742 Kbps
 Width : 720 pixels
 Height : 304 pixels
 Display aspect ratio : 2.35:1
 Frame rate : 23.976 fps
 Color space : YUV
 Chroma subsampling : 4:2:0
 Bit depth : 8 bits
 Scan type : Progressive
 Compression mode : Lossy
 Bits/(Pixel*Frame) : 0.332
 Stream size : 1.31 GiB (90%)
 Writing library : XviD 64

Audio
 ID : 1
 Format : AC-3
 Format/Info : Audio Coding 3
 Mode extension : CM (complete main)
 Codec ID : 2000
 Duration : 1h 47mn
 Bit rate mode : Constant
 Bit rate : 192 Kbps
 Channel(s) : 2 channels
 Channel positions : Front: L R
 Sampling rate : 48.0 KHz
 Bit depth : 16 bits
 Compression mode : Lossy
 Stream size : 147 MiB (10%)
 Alignment : Aligned on interleaves
 Interleave, duration : 42 ms (1.00 video frame)
 Interleave, preload duration : 512 ms
Релиз : *другой трекер*

picpicpic
Для увеличения картинки щелкните мышкой по превью

Этот торрент недоступен для скачивания без регистрации, однако доступен по публичной magnet-ссылке (источники с публичных трекеров). Перед использованием ссылки прочтите, пожалуйста Пользовательское соглашение, а также как можно дольше оставайтесь на раздаче! Для того, чтобы скачать сам торрент-файл (который видит больше источников), а также для того, чтобы поблагодарить релизера, вам необходимо зарегистрироваться. Если регистрироваться лень - вы можете также попробовать скачать релиз по нашим партнерским ссылкам ниже.

[underverse.su].t33820.torrent
Трекер: Зарегистрирован   [ 04.12.2013 16:12 ]  

Статус: проверено (by garry at 04.12.2013 16:30)
Поблагодарили: 1 человек
Тип торрента: публичный - доступные источники с открытых трекеров: 
Размер: 1,46 GB (занимает 1/3 DVDR, для записи нужно 1 болванка DVDR/RW)
 
 

Яндекс.Метрика powered by Sphinx


В Н И М А Н И Е
Сайт не распространяет и не хранит электронные версии произведений, а лишь бесплатно и без коммерческой выгоды (не требуя взамен платы,
SMS и т.д.) предоставляет доступ к создаваемому пользователями каталогу ссылок на торрент-файлы, которые содержат только списки хеш-сумм.
Убедительная просьба с жалобами обращаться напрямую к пользователю, разместившему торрент файл.

Вверх