Loading...
Error

Любовь во время истерии / Solo con tu pareja (Альфонсо Куарон / Alfonso Cuaron) [1991 г., комедия, DVDRip] MVO

Статистика раздачи
Размер:  1,37 GB   |    Зарегистрирован:  2 года 11 месяцев   |    Скачан:  7 раз

Полного источника не было: 1 год 9 месяцев

Сидов:  0  |  0 KB/s  ]   Личеров:  0  |  0 KB/s  ]

* - сиды/пиры с внешних источников

   
 
Автор Сообщение

garry Пол:Муж

04-Дек-2013 12:43

Любовь во время истерии / Solo con tu pareja


Год выпуска: 1991
Жанр: комедия
Страна: Мексика
Режиссер: Альфонсо Куарон / Alfonso Cuaron
В ролях: Даниэль Хименес Качо, Клаудия Рамирес, Луис Де Икаса, Изабель Бенет, Рикардо Далмаччи, Клаудия Фернандез, Астрид Адад
Сюжет фильма:
Две любовницы, одновременно ждущие страсти в двух разных квартирах, разумеется, не проблема для пылкого бабника Томаса. Как заправский акробат, он даже пробежит по карнизу, лишь бы не разочаровать своих пассий! И если бы не очаровательная стюардесса в окне по соседству, в которую Томаса угораздило попутно влюбиться, он бы удержался на грани… Но теперь обиженная любовница в отместку заявит Томасу, что у него СПИД! Как проведет свои «последние дни» настоящий Дон Жуан — впадет в истерию или же устроит себе великолепный финальный любовный роман?

  • Мировая премьера: 9 сентября 1991


Качество видео: DVDRip

Продолжительность: 01:34:19
Формат: AVI
Видео: XviD, 704x384, 1620 kbps
Аудио: русский, многоголосый закадровый [профессиональный], AC3 5.1, 448 kbps

Код:

General
Complete name                            : D:\Downloads\Lyubov.vo.vremya.isterii.1991.XviD.DVDRip.avi
Format                                   : AVI
Format/Info                              : Audio Video Interleave
File size                                : 1.37 GiB
Duration                                 : 1h 34mn
Overall bit rate                         : 2 075 Kbps
Writing application                      : VirtualDubMod 1.5.10.2 (build 2540/release)
Writing library                          : VirtualDubMod build 2540/release

Video
ID                                       : 0
Format                                   : MPEG-4 Visual
Format profile                           : Advanced Simple@L5
Format settings, BVOP                    : 2
Format settings, QPel                    : No
Format settings, GMC                     : No warppoints
Format settings, Matrix                  : Default (MPEG)
Muxing mode                              : Packed bitstream
Codec ID                                 : XVID
Codec ID/Hint                            : XviD
Duration                                 : 1h 34mn
Bit rate                                 : 1 616 Kbps
Width                                    : 704 pixels
Height                                   : 384 pixels
Display aspect ratio                     : 1.85:1
Frame rate                               : 29.970 fps
Color space                              : YUV
Chroma subsampling                       : 4:2:0
Bit depth                                : 8 bits
Scan type                                : Progressive
Compression mode                         : Lossy
Bits/(Pixel*Frame)                       : 0.199
Stream size                              : 1.06 GiB (78%)
Writing library                          : XviD 1.2.1 (UTC 2008-12-04)

Audio
ID                                       : 1
Format                                   : AC-3
Format/Info                              : Audio Coding 3
Mode extension                           : CM (complete main)
Format settings, Endianness              : Big
Codec ID                                 : 2000
Duration                                 : 1h 34mn
Bit rate mode                            : Constant
Bit rate                                 : 448 Kbps
Channel count                            : 6 channels
Channel positions                        : Front: L C R, Side: L R, LFE
Sampling rate                            : 48.0 KHz
Bit depth                                : 16 bits
Compression mode                         : Lossy
Stream size                              : 302 MiB (22%)
Alignment                                : Split accross interleaves
Interleave, duration                     : 33 ms (1.00 video frame)
Interleave, preload duration             : 500 ms
Семпл: http://multi-up.com/929421

picpicpic
Для увеличения картинки щелкните мышкой по превью

Этот торрент недоступен для скачивания без регистрации, однако доступен по публичной magnet-ссылке (источники с публичных трекеров). Перед использованием ссылки прочтите, пожалуйста Пользовательское соглашение, а также как можно дольше оставайтесь на раздаче! Для того, чтобы скачать сам торрент-файл (который видит больше источников), а также для того, чтобы поблагодарить релизера, вам необходимо зарегистрироваться. Если регистрироваться лень - вы можете также попробовать скачать релиз по нашим партнерским ссылкам ниже.

[underverse.su].t33806.torrent
Трекер: Зарегистрирован   [ 04.12.2013 12:43 ]  

Статус: проверено (by garry at 04.12.2013 12:43)
Поблагодарили: пока никто не поблагодарил...
Тип торрента: публичный - доступные источники с открытых трекеров: 
Размер: 1,37 GB (занимает 0,31 DVDR, для записи нужно 1 болванка DVDR/RW)
 
 

Яндекс.Метрика powered by Sphinx


В Н И М А Н И Е
Сайт не распространяет и не хранит электронные версии произведений, а лишь бесплатно и без коммерческой выгоды (не требуя взамен платы,
SMS и т.д.) предоставляет доступ к создаваемому пользователями каталогу ссылок на торрент-файлы, которые содержат только списки хеш-сумм.
Убедительная просьба с жалобами обращаться напрямую к пользователю, разместившему торрент файл.

Вверх