Loading...
Error

Кулинар 2 [1-20 серии из 20] (Михаил Макаренко, Андрей Иванов) [2013 г., Боевик, криминал, SatRip]

Статистика раздачи
Размер:  10,91 GB   |    Зарегистрирован:  2 года 11 месяцев   |    Скачан:  28 раз

Полного источника не было: 1 день 17 часов

Сидов:  0  |  0 KB/s  ]   Личеров:  0  |  0 KB/s  ]

* - сиды/пиры с внешних источников

   
 
Автор Сообщение

nemos Пол:Муж

03-Дек-2013 20:42

Кулинар 2


Год выпуска: 2013
Жанр: Боевик, криминал
Страна: Украина
Режиссер: Михаил Макаренко, Андрей Иванов
В ролях: Игорь Ботвин, Сергей Гамов, Роман Агеев, Игорь Ламба, Светлана Цвиченко, Кирилл Капица, Андрей Аверков, Юрий Уткин, Ольга Белявская, Евгений Сиротин, Александр Глинский, Рафаил Эйвазов, Денис Кириллов, Владимир Космидайло, Анатолий Ильченко, Александр Мосолов, Геннадий Макоев, Сергей Шкарбан, Сергей Фёдоров (VI), Стэнли Красовицки, Наталья Голованова, Евгений Катаев, Диана Дезмари, Елена Купрашевич, Антон Успенский
Сюжет фильма:
Феликс Малинин живет в небольшом городке. Среди друзей и знакомых, он слывет неплохим парнем, замкнутым чудаком, постоянно пропадающим в командировках. У Феликса есть небольшое пристрастие – он очень любит готовить, а также У НЕГО ЕСТЬ секрет, о котором знают лишь несколько человек. На самом деле он – сотрудник оперативно-розыскного бюро МВД. Его оперативный псевдоним - «Кулинар». Его работа – оперативное внедрение и сбор информации обо всём, что может представлять интерес для правоохранительных органов. Способный мгновенно перевоплощаться и любыми способами получить нужную информацию, к каждому делу Феликс подходит с особым вкусом – будто готовит очередное блюдо, а каждой операции дает кулинарное название..


Качество видео: SatRip

Продолжительность: 00:47:10 серия
Формат: AVI
Видео: XviD, 704x384, 1 747 kbps
Аудио: русский, MP3 2.0, 192 kbps

Код:

E:\Фильмы (роздача)\Кулинар-2 SATRip.by.simka\Кулинар-2.(20.seriya).2013.XviD.SATRip.by.simka.avi
   General
      Complete name : E:\Фильмы (роздача)\Кулинар-2 SATRip.by.simka\Кулинар-2.(20.seriya).2013.XviD.SATRip.by.simka.avi
      Format : AVI
      Format/Info : Audio Video Interleave
      File size : 658 MiB
      Duration : 47mn 10s
      Overall bit rate : 1 949 Kbps
      Writing application : VirtualDubModRus 1.5.10.2 (build 2542/release)
      Writing library : VirtualDubMod build 2542/release
   Video #0
      ID : 0
      Format : MPEG-4 Visual
      Format profile : Advanced Simple@L5
      Format settings, BVOP : 1
      Format settings, QPel : No
      Format settings, GMC : No warppoints
      Format settings, Matrix : Default (H.263)
      Codec ID : XVID
      Codec ID/Hint : XviD
      Duration : 47mn 10s
      Bit rate : 1 747 Kbps
      Width : 704 pixels
      Height : 384 pixels
      Display aspect ratio : 1.85:1
      Frame rate : 25.000 fps
      Color space : YUV
      Chroma subsampling : 4:2:0
      Bit depth : 8 bits
      Scan type : Progressive
      Compression mode : Lossy
      Bits/(Pixel*Frame) : 0.258
      Stream size : 589 MiB (90%)
      Writing library : XviD 1.2.1 (UTC 2008-12-04)
   Audio #1
      ID : 1
      Format : MPEG Audio
      Format version : Version 1
      Format profile : Layer 3
      Mode : Joint stereo
      Mode extension : MS Stereo
      Codec ID : 55
      Codec ID/Hint : MP3
      Duration : 47mn 10s
      Bit rate mode : Constant
      Bit rate : 192 Kbps
      Channel(s) : 2 channels
      Sampling rate : 48.0 KHz
      Compression mode : Lossy
      Stream size : 64.8 MiB (10%)
      Alignment : Aligned on interleaves
      Interleave, duration : 40 ms (1.00 video frame)
      Interleave, preload duration : 504 ms
      Writing library : LAME3.99r
      Encoding settings : -m j -V 4 -q 2 -lowpass 18.6 -b 192
Семпл: http://multi-up.com/929278

picpicpicpicpicpicpicpicpicpicpicpicpicpicpicpicpicpicpicpic
Для увеличения картинки щелкните мышкой по превью

Этот торрент недоступен для скачивания без регистрации, однако доступен по публичной magnet-ссылке (источники с публичных трекеров). Перед использованием ссылки прочтите, пожалуйста Пользовательское соглашение, а также как можно дольше оставайтесь на раздаче! Для того, чтобы скачать сам торрент-файл (который видит больше источников), а также для того, чтобы поблагодарить релизера, вам необходимо зарегистрироваться. Если регистрироваться лень - вы можете также попробовать скачать релиз по нашим партнерским ссылкам ниже.

[underverse.su].t34351.torrent
Трекер: Зарегистрирован   [ 18.12.2013 17:09 ]  

Статус: проверено (by garry at 22.12.2013 11:41)
Поблагодарили: 2 человека
Тип торрента: публичный - доступные источники с открытых трекеров: 
Размер: 10,91 GB (занимает 2,49 DVDR, для записи нужно 3 болванки DVDR/RW)
 
 


Последний раз редактировалось: nemos (18.12.2013 17:09), всего редактировалось 8 раз(а)

nemos Пол:Муж

04-Дек-2013 18:11

Мультитрекер. Сидов не видно, но качать можно. Торрент обновлён! Добавлены серии: 19-20

Яндекс.Метрика powered by Sphinx


В Н И М А Н И Е
Сайт не распространяет и не хранит электронные версии произведений, а лишь бесплатно и без коммерческой выгоды (не требуя взамен платы,
SMS и т.д.) предоставляет доступ к создаваемому пользователями каталогу ссылок на торрент-файлы, которые содержат только списки хеш-сумм.
Убедительная просьба с жалобами обращаться напрямую к пользователю, разместившему торрент файл.

Вверх