Loading...
Error

Розыск / Серии: 1-16 (16) (Андрей Линич) [2013 г., детектив, боевик, SatRip]

Статистика раздачи
Размер:  7,74 GB   |    Зарегистрирован:  3 года   |    Скачан:  13 раз

Полного источника не было: 3 месяца 11 дней

Сидов:  0  |  0 KB/s  ]   Личеров:  0  |  0 KB/s  ]

* - сиды/пиры с внешних источников

   
 
Автор Сообщение

nemos Пол:Муж

02-Дек-2013 16:22

Розыск


Год выпуска: 2013
Жанр: Детектив, боевик
Страна: Россия
Режиссер: Андрей Линич
В ролях: Александр Кузнецов, Сергей Борисов, Роман Богданов, Алексей Фаддеев, Василий Шмаков, Рамиль Сабитов, Олег Доброван, Прохор Зикора, Марина Черняева, Софья Максимча, Мария Буравлева, Юрий Горин, Александр Самойленко
Сюжет фильма:
Главный герой сериала – Денис Попов. Он возглавляет работу уголовного розыска в одном из Отделов внутренних дел Москвы. Коллеги Дениса – оперативники Лукин, Могилин и Жуков давно стали сплоченной командой и во всем поддерживают своего шефа - опытного, справедливого, талантливого сыщика. У него рука не дрогнет, нервы не сдадут, а преступник будет найден! Иногда он может сорваться, может послать, а то и врезать, но это его земля, и здесь действуют его правила. Сотрудники отдела Попова расследуют не самые «резонансные» дела; их уровень – это бытовые убийства, грабежи, разбои и кражи - то, что может случиться с каждым. Сыщики - обыкновенные, узнаваемые и не слишком счастливые в личной жизни люди, потому что главное в их жизни – розыск, и ради поиска преступников они порой совсем забывают о себе...


Качество видео: SatRip

Продолжительность: 00:43:28 серия
Формат: AVI
Видео: XviD, 720х416, 1 495 kbps
Аудио: русский, MP3 2.0, 128 kbps

Код:

E:\Фильмы (роздача)\Rozysk.2013.SATRip.KZ\Rozysk.16.2013.SATRip.KZ.avi
   General
      Complete name : E:\Фильмы (роздача)\Rozysk.2013.SATRip.KZ\Rozysk.16.2013.SATRip.KZ.avi
      Format : AVI
      Format/Info : Audio Video Interleave
      File size : 508 MiB
      Duration : 43mn 28s
      Overall bit rate : 1 633 Kbps
      Writing application : VirtualDubMod 1.5.10.2 (build 2540/release)
      Writing library : VirtualDub build 32507/release
   Video #0
      ID : 0
      Format : MPEG-4 Visual
      Format profile : Advanced Simple@L5
      Format settings, BVOP : 2
      Format settings, QPel : No
      Format settings, GMC : No warppoints
      Format settings, Matrix : Default (MPEG)
      Codec ID : XVID
      Codec ID/Hint : XviD
      Duration : 43mn 28s
      Bit rate : 1 495 Kbps
      Width : 720 pixels
      Height : 416 pixels
      Display aspect ratio : 1.731
      Frame rate : 25.000 fps
      Color space : YUV
      Chroma subsampling : 4:2:0
      Bit depth : 8 bits
      Scan type : Progressive
      Compression mode : Lossy
      Bits/(Pixel*Frame) : 0.200
      Stream size : 465 MiB (92%)
      Writing library : XviD 64
   Audio #1
      ID : 1
      Format : MPEG Audio
      Format version : Version 1
      Format profile : Layer 3
      Mode : Joint stereo
      Mode extension : MS Stereo
      Codec ID : 55
      Codec ID/Hint : MP3
      Duration : 43mn 28s
      Bit rate mode : Constant
      Bit rate : 128 Kbps
      Channel(s) : 2 channels
      Sampling rate : 48.0 KHz
      Compression mode : Lossy
      Stream size : 39.8 MiB (8%)
      Alignment : Aligned on interleaves
      Interleave, duration : 40 ms (1.00 video frame)
      Interleave, preload duration : 504 ms
Семпл: http://multi-up.com/928864

picpicpicpicpicpicpicpicpicpicpicpicpicpicpicpicpicpicpic
Для увеличения картинки щелкните мышкой по превью

Этот торрент недоступен для скачивания без регистрации, однако доступен по публичной magnet-ссылке (источники с публичных трекеров). Перед использованием ссылки прочтите, пожалуйста Пользовательское соглашение, а также как можно дольше оставайтесь на раздаче! Для того, чтобы скачать сам торрент-файл (который видит больше источников), а также для того, чтобы поблагодарить релизера, вам необходимо зарегистрироваться. Если регистрироваться лень - вы можете также попробовать скачать релиз по нашим партнерским ссылкам ниже.

[underverse.su].t33841.torrent
Трекер: Зарегистрирован   [ 05.12.2013 15:24 ]  

Статус: проверено (by 90ytr90 at 05.12.2013 17:04)
Поблагодарили: 3 человека
Тип торрента: публичный - доступные источники с открытых трекеров: 
Размер: 7,74 GB (занимает 1,77 DVDR, для записи нужно 2 болванки DVDR/RW)
 
 


Последний раз редактировалось: nemos (06.11.2014 09:37), всего редактировалось 3 раз(а)

nemos Пол:Муж

03-Дек-2013 15:07

Торрент обновлён! Добавлены серии: 9-16

Яндекс.Метрика powered by Sphinx


В Н И М А Н И Е
Сайт не распространяет и не хранит электронные версии произведений, а лишь бесплатно и без коммерческой выгоды (не требуя взамен платы,
SMS и т.д.) предоставляет доступ к создаваемому пользователями каталогу ссылок на торрент-файлы, которые содержат только списки хеш-сумм.
Убедительная просьба с жалобами обращаться напрямую к пользователю, разместившему торрент файл.

Вверх